荒野 / The.Wilds (内嵌中字)(2020) / 第一全10集/ 4K高清版本下载

[复制链接]

121

主题

140

帖子

1369

积分

版主

Rank: 7Rank: 7Rank: 7

积分
1369
 楼主| 发表于 2022-5-6 20:59:06 | 显示全部楼层 |阅读模式
p2626353069_副本.jpg

◎译  名 荒野 第一季
◎片  名 The Wilds Season 1
◎年  代 2020
◎产  地 美国
◎类  别 剧情
◎语  言 英语
◎上映日期 2020-12-11(美国)
◎IMDb评分  7.2/10 from 15552 users
◎IMDb链接  https://www.imdb.com/title/tt8633062/
◎豆瓣评分 8.1/10 from 4163 users
◎豆瓣链接 https://movie.douban.com/subject/30259934/
◎集  数 10
◎导  演 苏珊娜·福格尔 Susanna Fogel
◎编  剧 莎拉·施特莱歇尔 Sarah Streicher / 莎莉莎·弗朗西斯 Shalisha Francis
◎演  员 瑞切尔·格里菲斯 Rachel Griffiths
       大卫·苏利文 David Sullivan
       索菲娅·阿里 Sophia Ali
       海伦娜·霍华德 Helena Howard
       雷格·爱德沃兹 Reign Edwards
       香农·贝里 Shannon Berry
       坦蒂·莱特 Tandi Wright
       卡特·哈德森 Carter Hudson
       埃米特·斯基尔顿 Emmett Skilton
       贾里德·布莱基斯顿 Jarred Blakiston
       肖恩·卡拉汉 Shane Callahan
       詹姆斯·弗雷泽 James Fraser
       埃拉娜·詹姆斯 Erana James
      迪迪·迪昂 Deidee Deionne
       艾莉森·布鲁斯 Alison Bruce
       萨拉·皮金 Sarah Pidgeon
       米娅·海雷 Mia Healey

◎简  介

   飞机失事使一群青少年被困在荒岛上,他们必须生存下来。女孩们向调查人员讲述了她们的故事,调查人员慢慢地把故事讲了出来他们一起发生了什么。

Video
ID : 1
Format : HEVC
Format/Info : High Efficiency Video Coding
Format profile : Main 10@L5@Main
HDR format : SMPTE ST 2094 App 4, Version 1, HDR10+ Profile B compatible
Codec ID : V_MPEGH/ISO/HEVC
Duration : 1 h 1 min
Bit rate : 14.5 Mb/s
Width : 3 840 pixels
Height : 2 160 pixels
Display aspect ratio : 16:9
Frame rate mode : Constant
Frame rate : 23.976 (24000/1001) FPS
Color space : YUV
Chroma subsampling : 4:2:0
Bit depth : 10 bits
Bits/(Pixel*Frame) : 0.073
Stream size : 6.28 GiB (96%)
Default : Yes
Forced : No
Color range : Limited
Color primaries : BT.2020
Transfer characteristics : PQ
Matrix coefficients : BT.2020 non-constant
Mastering display color primaries : Display P3
Mastering display luminance : min: 0.0001 cd/m2, max: 1000 cd/m2
Maximum Content Light Level : 433 cd/m2
Maximum Frame-Average Light Level : 147 cd/m2

Audio
ID : 2
Format : E-AC-3
Format/Info : Enhanced AC-3
Commercial name : Dolby Digital Plus
Codec ID : A_EAC3
Duration : 1 h 1 min
Bit rate mode : Constant
Bit rate : 640 kb/s
Channel(s) : 6 channels
Channel layout : L R C LFE Ls Rs
Sampling rate : 48.0 kHz
Frame rate : 31.250 FPS (1536 SPF)
Compression mode : Lossy
Stream size : 283 MiB (4%)
Language : English
Service kind : Complete Main
Default : Yes
Forced : No

Text #1
ID : 3
Format : UTF-8
Codec ID : S_TEXT/UTF8
Codec ID/Info : UTF-8 Plain Text
Duration : 1 h 1 min
Bit rate : 78 b/s
Count of elements : 687
Stream size : 35.5 KiB (0%)
Language : Arabic
Default : No
Forced : No

Text #2
ID : 4
Format : UTF-8
Codec ID : S_TEXT/UTF8
Codec ID/Info : UTF-8 Plain Text
Duration : 1 h 1 min
Bit rate : 45 b/s
Count of elements : 684
Stream size : 20.4 KiB (0%)
Language : Danish
Default : No
Forced : No

Text #3
ID : 5
Format : UTF-8
Codec ID : S_TEXT/UTF8
Codec ID/Info : UTF-8 Plain Text
Duration : 1 h 1 min
Bit rate : 51 b/s
Count of elements : 681
Stream size : 22.9 KiB (0%)
Language : German
Default : No
Forced : No

Text #4
ID : 6
Format : UTF-8
Codec ID : S_TEXT/UTF8
Codec ID/Info : UTF-8 Plain Text
Duration : 1 h 1 min
Bit rate : 61 b/s
Count of elements : 1121
Stream size : 27.8 KiB (0%)
Title : (SDH)
Language : English
Default : No
Forced : No

Text #5
ID : 7
Format : UTF-8
Codec ID : S_TEXT/UTF8
Codec ID/Info : UTF-8 Plain Text
Duration : 1 h 1 min
Bit rate : 44 b/s
Count of elements : 681
Stream size : 20.2 KiB (0%)
Language : fil
Default : No
Forced : No

Text #6
ID : 8
Format : UTF-8
Codec ID : S_TEXT/UTF8
Codec ID/Info : UTF-8 Plain Text
Duration : 1 h 1 min
Bit rate : 45 b/s
Count of elements : 681
Stream size : 20.5 KiB (0%)
Language : Finnish
Default : No
Forced : No

Text #7
ID : 9
Format : UTF-8
Codec ID : S_TEXT/UTF8
Codec ID/Info : UTF-8 Plain Text
Duration : 1 h 1 min
Bit rate : 47 b/s
Count of elements : 678
Stream size : 21.5 KiB (0%)
Language : French
Default : No
Forced : No

Text #8
ID : 10
Format : UTF-8
Codec ID : S_TEXT/UTF8
Codec ID/Info : UTF-8 Plain Text
Duration : 1 h 1 min
Bit rate : 76 b/s
Count of elements : 687
Stream size : 34.5 KiB (0%)
Language : Hebrew
Default : No
Forced : No

Text #9
ID : 11
Format : UTF-8
Codec ID : S_TEXT/UTF8
Codec ID/Info : UTF-8 Plain Text
Duration : 1 h 1 min
Bit rate : 123 b/s
Count of elements : 687
Stream size : 55.5 KiB (0%)
Language : Hindi
Default : No
Forced : No

Text #10
ID : 12
Format : UTF-8
Codec ID : S_TEXT/UTF8
Codec ID/Info : UTF-8 Plain Text
Duration : 1 h 1 min
Bit rate : 43 b/s
Count of elements : 674
Stream size : 19.7 KiB (0%)
Language : Indonesian
Default : No
Forced : No

Text #11
ID : 13
Format : UTF-8
Codec ID : S_TEXT/UTF8
Codec ID/Info : UTF-8 Plain Text
Duration : 1 h 1 min
Bit rate : 43 b/s
Count of elements : 679
Stream size : 19.7 KiB (0%)
Language : Italian
Default : No
Forced : No

Text #12
ID : 14
Format : UTF-8
Codec ID : S_TEXT/UTF8
Codec ID/Info : UTF-8 Plain Text
Duration : 1 h 1 min
Bit rate : 48 b/s
Count of elements : 670
Stream size : 21.7 KiB (0%)
Language : Japanese
Default : No
Forced : No

Text #13
ID : 15
Format : UTF-8
Codec ID : S_TEXT/UTF8
Codec ID/Info : UTF-8 Plain Text
Duration : 1 h 1 min
Bit rate : 56 b/s
Count of elements : 687
Stream size : 25.6 KiB (0%)
Language : Korean
Default : No
Forced : No

Text #14
ID : 16
Format : UTF-8
Codec ID : S_TEXT/UTF8
Codec ID/Info : UTF-8 Plain Text
Duration : 1 h 1 min
Bit rate : 45 b/s
Count of elements : 684
Stream size : 20.6 KiB (0%)
Language : Dutch
Default : No
Forced : No

Text #15
ID : 17
Format : UTF-8
Codec ID : S_TEXT/UTF8
Codec ID/Info : UTF-8 Plain Text
Duration : 1 h 1 min
Bit rate : 45 b/s
Count of elements : 685
Stream size : 20.6 KiB (0%)
Language : Norwegian Bokmal
Default : No
Forced : No

Text #16
ID : 18
Format : UTF-8
Codec ID : S_TEXT/UTF8
Codec ID/Info : UTF-8 Plain Text
Duration : 1 h 1 min
Bit rate : 44 b/s
Count of elements : 674
Stream size : 19.9 KiB (0%)
Language : Polish
Default : No
Forced : No

Text #17
ID : 19
Format : UTF-8
Codec ID : S_TEXT/UTF8
Codec ID/Info : UTF-8 Plain Text
Duration : 1 h 1 min
Bit rate : 45 b/s
Count of elements : 685
Stream size : 20.6 KiB (0%)
Language : Portuguese
Default : No
Forced : No

Text #18
ID : 20
Format : UTF-8
Codec ID : S_TEXT/UTF8
Codec ID/Info : UTF-8 Plain Text
Duration : 1 h 1 min
Bit rate : 72 b/s
Count of elements : 687
Stream size : 32.7 KiB (0%)
Language : Russian
Default : No
Forced : No

Text #19
ID : 21
Format : UTF-8
Codec ID : S_TEXT/UTF8
Codec ID/Info : UTF-8 Plain Text
Duration : 1 h 1 min
Bit rate : 46 b/s
Count of elements : 686
Stream size : 20.8 KiB (0%)
Language : Spanish
Default : No
Forced : No

Text #20
ID : 22
Format : UTF-8
Codec ID : S_TEXT/UTF8
Codec ID/Info : UTF-8 Plain Text
Duration : 1 h 1 min
Bit rate : 48 b/s
Count of elements : 683
Stream size : 21.8 KiB (0%)
Language : Swedish
Default : No
Forced : No

Text #21
ID : 23
Format : UTF-8
Codec ID : S_TEXT/UTF8
Codec ID/Info : UTF-8 Plain Text
Duration : 1 h 1 min
Bit rate : 128 b/s
Count of elements : 687
Stream size : 57.7 KiB (0%)
Language : Tamil
Default : No
Forced : No

Text #22
ID : 24
Format : UTF-8
Codec ID : S_TEXT/UTF8
Codec ID/Info : UTF-8 Plain Text
Duration : 1 h 1 min
Bit rate : 127 b/s
Count of elements : 684
Stream size : 57.1 KiB (0%)
Language : Telugu
Default : No
Forced : No

Text #23
ID : 25
Format : UTF-8
Codec ID : S_TEXT/UTF8
Codec ID/Info : UTF-8 Plain Text
Duration : 1 h 1 min
Bit rate : 117 b/s
Count of elements : 687
Stream size : 52.6 KiB (0%)
Language : Thai
Default : No
Forced : No

Text #24
ID : 26
Format : UTF-8
Codec ID : S_TEXT/UTF8
Codec ID/Info : UTF-8 Plain Text
Duration : 1 h 1 min
Bit rate : 46 b/s
Count of elements : 686
Stream size : 20.7 KiB (0%)
Language : Turkish
Default : No
Forced : No

Text #25
ID : 27
Format : UTF-8
Codec ID : S_TEXT/UTF8
Codec ID/Info : UTF-8 Plain Text
Duration : 1 h 1 min
Bit rate : 42 b/s
Count of elements : 687
Stream size : 19.0 KiB (0%)
Language : 中文
Default : No
Forced : No
下载地址:

游客,如果您要查看本帖隐藏内容请回复





上一篇:大康恩 (内嵌简繁中字) (2022) / 第一季全4集 / 4K高清版本下载
下一篇:荒野/The.Wilds(内嵌简繁中字)(2020)/第二季全7集/4K高清版本下载
回复

使用道具 举报

3

主题

1291

帖子

3883

积分

4K家园VIP

Rank: 9Rank: 9Rank: 9

积分
3883
发表于 2022-5-6 21:03:45 | 显示全部楼层
边撸边过
回复 支持 反对

使用道具 举报

0

主题

3

帖子

18

积分

新手上路

Rank: 1

积分
18
发表于 2022-5-7 14:36:45 | 显示全部楼层
谢谢,路过看看。
回复 支持 反对

使用道具 举报

0

主题

111

帖子

774

积分

新手上路

Rank: 1

积分
774
发表于 2022-5-7 17:04:46 | 显示全部楼层
RE: 荒野 / The.Wilds (内嵌中字)(2020) / 第一全10集/ 4K高清版本下载 [修改]
回复 支持 反对

使用道具 举报

1

主题

1746

帖子

4846

积分

4K家园VIP

Rank: 9Rank: 9Rank: 9

积分
4846
发表于 2022-5-7 18:04:02 来自手机 | 显示全部楼层
额.....这个可以有
回复 支持 反对

使用道具 举报

0

主题

5

帖子

18

积分

新手上路

Rank: 1

积分
18
发表于 2022-5-7 22:45:22 | 显示全部楼层
就是好看
回复

使用道具 举报

51

主题

1524

帖子

4378

积分

4K家园VIP

Rank: 9Rank: 9Rank: 9

积分
4378
发表于 2022-5-8 09:36:01 | 显示全部楼层
我也顶起出售广告位
回复 支持 反对

使用道具 举报

0

主题

2

帖子

16

积分

新手上路

Rank: 1

积分
16
发表于 2022-5-8 14:28:55 | 显示全部楼层
支持,谢谢。。。。。
回复

使用道具 举报

0

主题

7

帖子

20

积分

新手上路

Rank: 1

积分
20
发表于 2022-5-8 17:27:01 | 显示全部楼层
谢谢楼主分享
回复 支持 反对

使用道具 举报

1

主题

1275

帖子

3843

积分

4K家园VIP

Rank: 9Rank: 9Rank: 9

积分
3843
发表于 2022-5-8 21:42:20 | 显示全部楼层
路过的帮顶
回复 支持 反对

使用道具 举报

您需要登录后才可以回帖 登录 | 立即注册

本版积分规则

精彩图文
Archiver|手机版|TAG|Sitemap|新帖|专题|联系我们:邮箱: 4kjia.com@gmail.com   

4k家园   ©2019