[4K电影] 本回家了 / Ben is Back (2018) 4k高清版本下载

[复制链接]

2325

主题

2474

帖子

1万

积分

超级版主

Rank: 8Rank: 8

积分
17918
 楼主| 发表于 2022-5-7 10:30:05 | 显示全部楼层 |阅读模式

QQ图片20220507102815_副本.png

◎译  名 本回家了/迷失家缘(港)/班恩回家(台)/本回来了/本,回来了
◎片  名 Ben is Back
◎年  代 2018
◎产  地 美国
◎类  别 剧情
◎语  言 英语
◎上映日期 2018-09-08(多伦多电影节)/2018-12-07(美国)
◎IMDb评分  6.7/10 from 21075 users
◎IMDb链接  https://www.imdb.com/title/tt7545524/
◎豆瓣评分 7.0/10 from 6008 users
◎豆瓣链接 https://movie.douban.com/subject/27179199/
◎导  演 彼得·赫奇斯 Peter Hedges
◎编  剧 彼得·赫奇斯 Peter Hedges
◎主  演 朱莉娅·罗伯茨 Julia Roberts
       卢卡斯·赫奇斯 Lucas Hedges
       考特尼·万斯 Courtney B. Vance
       凯瑟琳·纽顿 Kathryn Newton
       雷切尔·贝·琼斯 Rachel Bay Jones
       戴维·萨迪瓦尔 David Zaldivar
       亚历山德拉·帕克 Alexandra Park
       迈克尔·埃斯佩尔 Michael Esper
       蒂姆·金尼 Tim Guinee
       迈拉·卢克利希亚·泰勒 Myra Lucretia Taylor
       克里斯汀·格里菲斯 Kristin Griffith
       亨利·斯特拉姆 Henry Stram
       比尔·布尔 Bill Buell
       亚历山德拉·艾布拉姆斯 Alexandra Abrams
       费斯·洛根 Faith Logan
       罗伯特·迈尔斯 Robert Myers
       肖恩·雷伊 Shaun Rey
       奈杰尔 Nigel

◎简  介


  影片故事发生在24小时之内,男主角Ben Burns富有魅力但又烦恼缠身,某个灾难性的圣诞节前夕,他回到了毫不知情的家里。母亲Holly Burns小心谨慎但热烈欢迎了她深爱的儿子,但随后发现他依旧存在着很大的问题,在这可能改变他们一生的24小时之内,母亲要竭尽所能避免家庭分崩离析。
  万斯将饰演本的继父,他自己有一套教育孩子的方法,因此与Holly发生了直接矛盾。凯瑟琳·牛顿饰演17岁的妹妹Ivy Burns,是位漂亮的歌手,热爱兄长,但不相信他能够变为一个更好的人,不喜欢他对家庭造成的影响,但明白他对母亲的重要性,也知道应该帮助他走入正轨。

◎获奖情况

  第9届北京国际电影节(2019)
  天坛奖(提名)

Video
ID : 1
Format : HEVC
Format/Info : High Efficiency Video Coding
Format profile : Main 10@L5@High
HDR format : SMPTE ST 2086, HDR10 compatible
Codec ID : V_MPEGH/ISO/HEVC
Duration : 1 h 43 min
Bit rate : 14.3 Mb/s
Width : 3 832 pixels
Height : 1 604 pixels
Display aspect ratio : 2.40:1
Frame rate mode : Constant
Frame rate : 23.976 FPS
Color space : YUV
Chroma subsampling : 4:2:0 (Type 2)
Bit depth : 10 bits
Bits/(Pixel*Frame) : 0.097
Stream size : 10.3 GiB (80%)
Default : Yes
Forced : No
Color range : Limited
Color primaries : BT.2020
Transfer characteristics : PQ
Matrix coefficients : BT.2020 non-constant
Mastering display color primaries : BT.2020
Mastering display luminance : min: 0.0001 cd/m2, max: 1000 cd/m2
Maximum Content Light Level : 10000 cd/m2
Maximum Frame-Average Light Level : 839 cd/m2

Audio #1
ID : 2
Format : DTS XLL
Format/Info : Digital Theater Systems
Commercial name : DTS-HD Master Audio
Codec ID : A_DTS
Duration : 1 h 43 min
Bit rate mode : Variable
Bit rate : 3 148 kb/s
Channel(s) : 6 channels
Channel layout : C L R Ls Rs LFE
Sampling rate : 48.0 kHz
Frame rate : 93.750 FPS (512 SPF)
Bit depth : 24 bits
Compression mode : Lossless
Delay relative to video : 3 s 0 ms
Stream size : 2.27 GiB (18%)
Title : DTS-HD MA 5.1
Language : English
Default : Yes
Forced : No

Audio #2
ID : 3
Format : AC-3
Format/Info : Audio Coding 3
Commercial name : Dolby Digital
Codec ID : A_AC3
Duration : 1 h 43 min
Bit rate mode : Constant
Bit rate : 384 kb/s
Channel(s) : 6 channels
Channel layout : L R C LFE Ls Rs
Sampling rate : 48.0 kHz
Frame rate : 31.250 FPS (1536 SPF)
Compression mode : Lossy
Stream size : 284 MiB (2%)
Title : DD 5.1
Language : English
Service kind : Complete Main
Default : No
Forced : No

Text #1
ID : 4
Format : UTF-8
Codec ID : S_TEXT/UTF8
Codec ID/Info : UTF-8 Plain Text
Duration : 1 h 34 min
Bit rate : 66 b/s
Count of elements : 1720
Stream size : 46.2 KiB (0%)
Title : English CC
Language : English
Default : Yes
Forced : No

Text #2
ID : 5
Format : UTF-8
Codec ID : S_TEXT/UTF8
Codec ID/Info : UTF-8 Plain Text
Duration : 1 h 33 min
Bit rate : 74 b/s
Count of elements : 1222
Stream size : 51.4 KiB (0%)
Title : Arabic
Language : Arabic
Default : No
Forced : No

Text #3
ID : 6
Format : PGS
Muxing mode : zlib
Codec ID : S_HDMV/PGS
Codec ID/Info : Picture based subtitle format used on BDs/HD-DVDs
Duration : 1 h 34 min
Bit rate : 69.9 kb/s
Count of elements : 2900
Stream size : 47.0 MiB (0%)
Language : English
Default : No
Forced : No

Text #4
ID : 7
Format : PGS
Muxing mode : zlib
Codec ID : S_HDMV/PGS
Codec ID/Info : Picture based subtitle format used on BDs/HD-DVDs
Duration : 1 h 34 min
Bit rate : 55.2 kb/s
Count of elements : 2532
Stream size : 37.2 MiB (0%)
Language : Spanish
Default : No
Forced : No

Menu
00:00:00.000 : en:Chapter 01
00:08:02.000 : en:Chapter 02
00:16:15.000 : en:Chapter 03
00:27:49.000 : en:Chapter 04
00:37:37.000 : en:Chapter 05
00:49:35.000 : en:Chapter 06
00:57:02.000 : en:Chapter 07
01:09:26.000 : en:Chapter 08
01:17:33.000 : en:Chapter 09
01:26:38.000 : en:Chapter 10
01:36:00.000 : en:Chapter 11
资源速度为零或资源敏感被和谐时,推荐使用qBittorrent等下载软件,有条件的推荐115更好的下载软件!

下载地址:


游客,如果您要查看本帖隐藏内容请回复





上一篇:我和大熊 / The Bears and I (1974) 4k高清版本下载
下一篇:皮囊之下 / Under My Skin (2020) 4k高清版本下载
回复

使用道具 举报

41

主题

1500

帖子

4300

积分

4K家园VIP

Rank: 9Rank: 9Rank: 9

积分
4300
发表于 2022-5-7 10:30:09 | 显示全部楼层
非常好,顶一下
回复 支持 反对

使用道具 举报

0

主题

8653

帖子

2万

积分

4K家园VIP

Rank: 9Rank: 9Rank: 9

积分
20150
发表于 2022-5-7 10:54:59 | 显示全部楼层
廣東龍門永遠馬到成功&萬分感謝版主的無私發佈分享%
回复 支持 反对

使用道具 举报

0

主题

7

帖子

129

积分

新手上路

Rank: 1

积分
129
发表于 2022-5-7 11:12:50 | 显示全部楼层
感谢分享~楼主厉害
回复 支持 反对

使用道具 举报

51

主题

1526

帖子

4398

积分

4K家园VIP

Rank: 9Rank: 9Rank: 9

积分
4398
发表于 2022-5-7 11:34:31 | 显示全部楼层
众里寻他千百度,蓦然回首在这里!
回复 支持 反对

使用道具 举报

0

主题

1407

帖子

4067

积分

4K家园VIP

Rank: 9Rank: 9Rank: 9

积分
4067
发表于 2022-5-7 12:05:52 来自手机 | 显示全部楼层
顶起顶起顶起
回复 支持 反对

使用道具 举报

0

主题

1199

帖子

3611

积分

4K家园VIP

Rank: 9Rank: 9Rank: 9

积分
3611
发表于 2022-5-7 12:22:18 来自手机 | 显示全部楼层
回复 支持 反对

使用道具 举报

1

主题

1434

帖子

4112

积分

4K家园VIP

Rank: 9Rank: 9Rank: 9

积分
4112
发表于 2022-5-7 12:42:47 | 显示全部楼层
大人,此事必有蹊跷!
回复 支持 反对

使用道具 举报

0

主题

31

帖子

77

积分

新手上路

Rank: 1

积分
77
发表于 2022-5-9 19:24:46 | 显示全部楼层
本回家了 / Ben is Back (2018) 4k高清版本下载 [修改]
回复 支持 反对

使用道具 举报

您需要登录后才可以回帖 登录 | 立即注册

本版积分规则

精彩图文
Archiver|手机版|TAG|Sitemap|新帖|专题|联系我们:邮箱: 4kjia.com@gmail.com   

4k家园   ©2019