[4K电影] 皮囊之下 / Under My Skin (2020) 4k高清版本下载

[复制链接]

1733

主题

1866

帖子

1万

积分

超级版主

Rank: 8Rank: 8

积分
14095
 楼主| 发表于 2022-5-9 15:38:10 | 显示全部楼层 |阅读模式
QQ图片20220509153714_副本.png

◎译  名 皮囊之下
◎片  名 Under My Skin
◎年  代 2020
◎产  地 澳大利亚 / 美国
◎类  别 剧情
◎语  言 英语
◎上映日期 2020-08-25(幻想曲电影节)
◎IMDb评分  7.3/10 from 15 users
◎IMDb链接  https://www.imdb.com/title/tt5532280/
◎豆瓣评分 0/10 from 0 users
◎豆瓣链接 https://movie.douban.com/subject/35237518/
◎片  长 96分钟
◎导  演 大卫·欧唐内 David O'Donnell
◎编  剧 大卫·欧唐内 David O'Donnell
◎演  员 埃里克斯·德尼索夫 Alexis Denisof                                         丽芙·休森 Liv Hewson
                    亚历克斯·罗素 Alex Russell
                    黛安娜·霍佩尔 Diana Hopper
                    凯瑟琳·海娜·金 Catherine Haena Kim
                    波比·萨尔沃·门努兹 Bobbi Salvör Menuez
                    新·布朗 Novi Brown
                    达维达·威廉姆斯 Davida Williams
                    约瑟夫·李·安德森 Joseph Lee Anderson
                    艾伦·斯迈思 Alan Smyth
                    乔治·杜威 Jeffrey Doornbos
                    艾米莉·贝瑞 Emily Berry
                    迈克尔·雷·伊斯卡米拉 Michael Ray Escamilla
                    勒罗伊·麦克雷 LeRoy McCray
                    玛迪·麦奎尔 Maddie McGuire

◎简  介


         丹尼,一个自由的灵魂和艺术家爱上了瑞安,一个正直的律师。当丹尼质疑性别时,他们的爱就会受到考验。
Video
ID : 1
Format : HEVC
Format/Info : High Efficiency Video Coding
Format profile : Main@L5@High
Codec ID : V_MPEGH/ISO/HEVC
Duration : 1 h 37 min
Bit rate : 13.8 Mb/s
Width : 3 840 pixels
Height : 2 160 pixels
Display aspect ratio : 16:9
Frame rate mode : Constant
Frame rate : 23.976 (23976/1000) FPS
Original frame rate : 23.976 (24000/1001) FPS
Color space : YUV
Chroma subsampling : 4:2:0
Bit depth : 8 bits
Bits/(Pixel*Frame) : 0.069
Stream size : 9.35 GiB (97%)
Default : Yes
Forced : No
Color range : Limited
Color primaries : BT.709
Transfer characteristics : BT.709
Matrix coefficients : BT.709

Audio
ID : 2
Format : E-AC-3
Format/Info : Enhanced AC-3
Commercial name : Dolby Digital Plus
Codec ID : A_EAC3
Duration : 1 h 37 min
Bit rate mode : Constant
Bit rate : 384 kb/s
Channel(s) : 6 channels
Channel layout : L R C LFE Ls Rs
Sampling rate : 48.0 kHz
Frame rate : 31.250 FPS (1536 SPF)
Compression mode : Lossy
Stream size : 267 MiB (3%)
Language : English
Service kind : Complete Main
Default : Yes
Forced : No

Text #1
ID : 3
Format : UTF-8
Codec ID : S_TEXT/UTF8
Codec ID/Info : UTF-8 Plain Text
Duration : 1 h 31 min
Bit rate : 38 b/s
Count of elements : 932
Stream size : 25.8 KiB (0%)
Language : English
Default : No
Forced : No

Text #2
ID : 4
Format : UTF-8
Codec ID : S_TEXT/UTF8
Codec ID/Info : UTF-8 Plain Text
Duration : 1 h 34 min
Bit rate : 41 b/s
Count of elements : 1012
Stream size : 28.6 KiB (0%)
Title : SDH
Language : English
Default : No
Forced : No

资源速度为零或资源敏感被和谐时,推荐使用qBittorrent等下载软件,有条件的推荐115更好的下载软件!

下载地址:

游客,如果您要查看本帖隐藏内容请回复







上一篇:本回家了 / Ben is Back (2018) 4k高清版本下载
下一篇:变线人生 / Changing Lanes (2002) 4k高清版本下载
回复

使用道具 举报

0

主题

1451

帖子

4167

积分

4K家园VIP

Rank: 9Rank: 9Rank: 9

积分
4167
发表于 2022-5-9 15:38:14 | 显示全部楼层
哈哈,我只看看不说话
回复 支持 反对

使用道具 举报

1

主题

1632

帖子

4518

积分

4K家园VIP

Rank: 9Rank: 9Rank: 9

积分
4518
发表于 2022-5-9 16:06:02 | 显示全部楼层
very good
回复 支持 反对

使用道具 举报

0

主题

714

帖子

2510

积分

注册会员

Rank: 2

积分
2510
发表于 2022-5-9 16:15:40 | 显示全部楼层
感谢分享     
回复 支持 反对

使用道具 举报

62

主题

1496

帖子

4368

积分

4K家园VIP

Rank: 9Rank: 9Rank: 9

积分
4368
发表于 2022-5-9 16:25:36 | 显示全部楼层
额.....这个可以有
回复 支持 反对

使用道具 举报

47

主题

1525

帖子

4417

积分

4K家园VIP

Rank: 9Rank: 9Rank: 9

积分
4417
发表于 2022-5-9 16:41:19 来自手机 | 显示全部楼层
顶起出售广告位
回复 支持 反对

使用道具 举报

6

主题

1219

帖子

3683

积分

4K家园VIP

Rank: 9Rank: 9Rank: 9

积分
3683
发表于 2022-5-9 17:16:55 | 显示全部楼层
怎么这么大,希望我电视能看啊
回复 支持 反对

使用道具 举报

0

主题

8230

帖子

1万

积分

4K家园VIP

Rank: 9Rank: 9Rank: 9

积分
18830
发表于 2022-5-9 17:37:12 | 显示全部楼层
太好啦&萬分感謝版主的無私發佈分享%
回复 支持 反对

使用道具 举报

0

主题

1

帖子

10

积分

新手上路

Rank: 1

积分
10
发表于 2022-5-9 20:00:14 | 显示全部楼层
谢谢分享!!!!!!!!
回复

使用道具 举报

0

主题

8

帖子

28

积分

新手上路

Rank: 1

积分
28
发表于 2022-5-10 16:09:01 | 显示全部楼层
感觉分享
回复

使用道具 举报

您需要登录后才可以回帖 登录 | 立即注册

本版积分规则

精彩图文
Archiver|手机版|TAG|Sitemap|新帖|专题|联系我们:邮箱: 4kjia.com@gmail.com   

4k家园   ©2019