[4K电影] 天空中的露西 (简繁中字) / Lucy in the Sky (2019) 4k高清版本下载

[复制链接]

2325

主题

2474

帖子

1万

积分

超级版主

Rank: 8Rank: 8

积分
17918
 楼主| 发表于 2022-5-9 20:49:52 | 显示全部楼层 |阅读模式

QQ图片20220509204830_副本.png

◎译  名 天空中的露西/淡蓝色圆点/Pale Blue Dot
◎片  名 Lucy in the Sky
◎年  代 2019
◎产  地 美国
◎类  别 剧情/科幻
◎语  言 英语
◎上映日期 2019-09-11(多伦多电影节)/2019-10-04(美国)
◎IMDb评分  4.9/10 from 7574 users
◎IMDb链接  https://www.imdb.com/title/tt4682804/
◎豆瓣评分 5.7/10 from 1049 users
◎豆瓣链接 https://douban.com/subject/25826020/
◎片  长 124分钟
◎导  演 诺亚·霍利 Noah Hawley
◎编  剧 Brian C. Brown / Elliott DiGuiseppi / 诺亚·霍利 Noah Hawley
◎主  演 娜塔莉·波特曼 Natalie Portman
       乔恩·哈姆 Jon Hamm
       丹·史蒂文斯 Dan Stevens
       莎姬·贝兹 Zazie Beetz
       艾伦·伯斯汀 Ellen Burstyn
       科尔曼·多明戈 Colman Domingo
       尼克·奥弗曼 Nick Offerman
       泰格·诺塔洛 Tig Notaro
       克里斯托弗·达尔加 Christopher Darga
       乔·威廉森 Joe Williamson
       阿尔洛·默茨 Arlo Mertz
       肯特·绍克内克 Kent Shocknek
       尼克·科尼特 Nic Cornett
       爱德华多·莱斯卡诺 Eduardo Lezcano


◎简  介


  影片讲述娜塔莉·波特曼饰演的女宇航员从太空中完成任务返回地球后,逐渐偏离原生活轨迹,现实感逐渐消失的故事。

Video
ID : 1
Format : HEVC
Format/Info : High Efficiency Video Coding
Format profile : Main 10@L5@High
HDR format : Dolby Vision, Version 1.0, dvhe.05.06, BL+RPU
Codec ID : dvhe
Codec ID/Info : High Efficiency Video Coding with Dolby Vision
Duration : 2 h 4 min
Bit rate : 16.5 Mb/s
Width : 3 840 pixels
Height : 2 160 pixels
Display aspect ratio : 16:9
Frame rate mode : Constant
Frame rate : 23.976 (24000/1001) FPS
Color space : YUV
Chroma subsampling : 4:2:0
Bit depth : 10 bits
Bits/(Pixel*Frame) : 0.083
Stream size : 14.4 GiB (98%)
Default : Yes
Alternate group : 1
Encoded date : UTC 2022-05-09 09:42:41
Tagged date : UTC 2022-05-09 09:47:22
Color range : Full
Codec configuration box : hvcC+dvcC

Audio
ID : 2
Format : E-AC-3
Format/Info : Enhanced AC-3
Commercial name : Dolby Digital Plus
Codec ID : ec-3
Duration : 2 h 4 min
Bit rate mode : Constant
Bit rate : 256 kb/s
Maximum bit rate : 270 kb/s
Channel(s) : 6 channels
Channel layout : L R C LFE Ls Rs
Sampling rate : 48.0 kHz
Frame rate : 31.250 FPS (1536 SPF)
Compression mode : Lossy
Stream size : 229 MiB (2%)
Title : English
Language : English
Service kind : Complete Main
Default : Yes
Alternate group : 1
Tagged date : UTC 2022-05-09 09:47:22

Text #1
ID : 3
Format : Timed Text
Codec ID : tx3g
Duration : 2 h 9 min
Bit rate mode : Variable
Bit rate : 67 b/s
Stream size : 63.4 KiB (0%)
Title : English
Language : English
Forced : No
Encoded date : UTC 2022-05-09 09:47:19
Tagged date : UTC 2022-05-09 09:47:22

Text #2
ID : 4
Format : Timed Text
Codec ID : tx3g
Duration : 2 h 9 min
Bit rate mode : Variable
Bit rate : 40 b/s
Stream size : 38.2 KiB (0%)
Title : 中文(粤语)
Language : 中文
Forced : No
Encoded date : UTC 2022-05-09 09:47:19
Tagged date : UTC 2022-05-09 09:47:22

Text #3
ID : 5
Format : Timed Text
Codec ID : tx3g
Duration : 2 h 9 min
Bit rate mode : Variable
Bit rate : 46 b/s
Stream size : 43.7 KiB (0%)
Title : 中文(简体)
Language : 中文
Forced : No
Encoded date : UTC 2022-05-09 09:47:19
Tagged date : UTC 2022-05-09 09:47:22


Text #4
ID : 6
Format : Timed Text
Codec ID : tx3g
Duration : 2 h 9 min
Bit rate mode : Variable
Bit rate : 50 b/s
Stream size : 47.4 KiB (0%)
Title : Czech
Language : Czech
Forced : No
Encoded date : UTC 2022-05-09 09:47:20
Tagged date : UTC 2022-05-09 09:47:22

Text #5
ID : 7
Format : Timed Text
Codec ID : tx3g
Duration : 2 h 9 min
Bit rate mode : Variable
Bit rate : 52 b/s
Stream size : 48.9 KiB (0%)
Title : Danish
Language : Danish
Forced : No
Encoded date : UTC 2022-05-09 09:47:20
Tagged date : UTC 2022-05-09 09:47:22

Text #6
ID : 8
Format : Timed Text
Codec ID : tx3g
Duration : 2 h 9 min
Bit rate mode : Variable
Bit rate : 39 b/s
Stream size : 37.4 KiB (0%)
Title : Dutch
Language : Dutch
Forced : No
Encoded date : UTC 2022-05-09 09:47:20
Tagged date : UTC 2022-05-09 09:47:22

Text #7
ID : 9
Format : Timed Text
Codec ID : tx3g
Duration : 2 h 9 min
Bit rate mode : Variable
Bit rate : 49 b/s
Stream size : 46.3 KiB (0%)
Title : Finnish
Language : Finnish
Forced : No
Encoded date : UTC 2022-05-09 09:47:20
Tagged date : UTC 2022-05-09 09:47:22

Text #8
ID : 10
Format : Timed Text
Codec ID : tx3g
Duration : 2 h 9 min
Bit rate mode : Variable
Bit rate : 50 b/s
Stream size : 47.7 KiB (0%)
Title : French
Language : French
Forced : No
Encoded date : UTC 2022-05-09 09:47:20
Tagged date : UTC 2022-05-09 09:47:22

Text #9
ID : 11
Format : Timed Text
Codec ID : tx3g
Duration : 2 h 9 min
Bit rate mode : Variable
Bit rate : 57 b/s
Stream size : 54.1 KiB (0%)
Title : French-CA
Language : French
Forced : No
Encoded date : UTC 2022-05-09 09:47:20
Tagged date : UTC 2022-05-09 09:47:22

Text #10
ID : 12
Format : Timed Text
Codec ID : tx3g
Duration : 2 h 9 min
Bit rate mode : Variable
Bit rate : 50 b/s
Stream size : 47.9 KiB (0%)
Title : German
Language : German
Forced : No
Encoded date : UTC 2022-05-09 09:47:20
Tagged date : UTC 2022-05-09 09:47:22

Text #11
ID : 13
Format : Timed Text
Codec ID : tx3g
Duration : 2 h 9 min
Bit rate mode : Variable
Bit rate : 50 b/s
Stream size : 47.3 KiB (0%)
Title : Hungarian
Language : Hungarian
Forced : No
Encoded date : UTC 2022-05-09 09:47:20
Tagged date : UTC 2022-05-09 09:47:22

Text #12
ID : 14
Format : Timed Text
Codec ID : tx3g
Duration : 2 h 9 min
Bit rate mode : Variable
Bit rate : 58 b/s
Stream size : 55.1 KiB (0%)
Title : Icelandic
Language : Icelandic
Forced : No
Encoded date : UTC 2022-05-09 09:47:20
Tagged date : UTC 2022-05-09 09:47:22

Text #13
ID : 15
Format : Timed Text
Codec ID : tx3g
Duration : 2 h 9 min
Bit rate mode : Variable
Bit rate : 51 b/s
Stream size : 48.8 KiB (0%)
Title : Italian
Language : Italian
Forced : No
Encoded date : UTC 2022-05-09 09:47:20
Tagged date : UTC 2022-05-09 09:47:22

Text #14
ID : 16
Format : Timed Text
Codec ID : tx3g
Duration : 2 h 9 min
Bit rate mode : Variable
Bit rate : 50 b/s
Stream size : 47.4 KiB (0%)
Title : Japanese
Language : Japanese
Forced : No
Encoded date : UTC 2022-05-09 09:47:20
Tagged date : UTC 2022-05-09 09:47:22

Text #15
ID : 17
Format : Timed Text
Codec ID : tx3g
Duration : 2 h 9 min
Bit rate mode : Variable
Bit rate : 45 b/s
Stream size : 43.1 KiB (0%)
Title : Korean
Language : Korean
Forced : No
Encoded date : UTC 2022-05-09 09:47:21
Tagged date : UTC 2022-05-09 09:47:22

Text #16
ID : 18
Format : Timed Text
Codec ID : tx3g
Duration : 2 h 9 min
Bit rate mode : Variable
Bit rate : 49 b/s
Stream size : 46.2 KiB (0%)
Title : Norwegian
Language : Norwegian
Forced : No
Encoded date : UTC 2022-05-09 09:47:21
Tagged date : UTC 2022-05-09 09:47:22

Text #17
ID : 19
Format : Timed Text
Codec ID : tx3g
Duration : 2 h 9 min
Bit rate mode : Variable
Bit rate : 49 b/s
Stream size : 46.3 KiB (0%)
Title : Polish
Language : Polish
Forced : No
Encoded date : UTC 2022-05-09 09:47:21
Tagged date : UTC 2022-05-09 09:47:22

Text #18
ID : 20
Format : Timed Text
Codec ID : tx3g
Duration : 2 h 9 min
Bit rate mode : Variable
Bit rate : 54 b/s
Stream size : 51.4 KiB (0%)
Title : Portuguese
Language : Portuguese
Forced : No
Encoded date : UTC 2022-05-09 09:47:21
Tagged date : UTC 2022-05-09 09:47:22

Text #19
ID : 21
Format : Timed Text
Codec ID : tx3g
Duration : 2 h 9 min
Bit rate mode : Variable
Bit rate : 53 b/s
Stream size : 50.7 KiB (0%)
Title : Portuguese-BR
Language : Portuguese
Forced : No
Encoded date : UTC 2022-05-09 09:47:21
Tagged date : UTC 2022-05-09 09:47:22

Text #20
ID : 22
Format : Timed Text
Codec ID : tx3g
Duration : 2 h 9 min
Bit rate mode : Variable
Bit rate : 53 b/s
Stream size : 50.1 KiB (0%)
Title : Romanian
Language : Romanian
Forced : No
Encoded date : UTC 2022-05-09 09:47:21
Tagged date : UTC 2022-05-09 09:47:22

Text #21
ID : 23
Format : Timed Text
Codec ID : tx3g
Duration : 2 h 9 min
Bit rate mode : Variable
Bit rate : 52 b/s
Stream size : 49.1 KiB (0%)
Title : Slovak
Language : Slovak
Forced : No
Encoded date : UTC 2022-05-09 09:47:21
Tagged date : UTC 2022-05-09 09:47:22

Text #22
ID : 24
Format : Timed Text
Codec ID : tx3g
Duration : 2 h 9 min
Bit rate mode : Variable
Bit rate : 52 b/s
Stream size : 49.1 KiB (0%)
Title : Spanish
Language : Spanish
Forced : No
Encoded date : UTC 2022-05-09 09:47:21
Tagged date : UTC 2022-05-09 09:47:22

Text #23
ID : 25
Format : Timed Text
Codec ID : tx3g
Duration : 2 h 9 min
Bit rate mode : Variable
Bit rate : 55 b/s
Stream size : 52.2 KiB (0%)
Title : Spanish-EU
Language : Spanish
Forced : No
Encoded date : UTC 2022-05-09 09:47:21
Tagged date : UTC 2022-05-09 09:47:22

Text #24
ID : 26
Format : Timed Text
Codec ID : tx3g
Duration : 2 h 9 min
Bit rate mode : Variable
Bit rate : 51 b/s
Stream size : 48.6 KiB (0%)
Title : Swedish
Language : Swedish
Forced : No
Encoded date : UTC 2022-05-09 09:47:21
Tagged date : UTC 2022-05-09 09:47:22

Text #25
ID : 27
Format : Timed Text
Codec ID : tx3g
Duration : 2 h 9 min
Bit rate mode : Variable
Bit rate : 53 b/s
Stream size : 50.6 KiB (0%)
Title : Turkish
Language : Turkish
Forced : No
Encoded date : UTC 2022-05-09 09:47:21
Tagged date : UTC 2022-05-09 09:47:22


资源速度为零或资源敏感被和谐时,推荐使用qBittorrent等下载软件,有条件的推荐115更好的下载软件!

下载地址:


游客,如果您要查看本帖隐藏内容请回复

游客,如果您要查看本帖隐藏内容请回复

游客,如果您要查看本帖隐藏内容请回复







上一篇:变线人生 / Changing Lanes (2002) 4k高清版本下载
下一篇:纸镇(内封简繁中字) / Paper Towns (2015) 4k高清版本下载
回复

使用道具 举报

0

主题

1393

帖子

4013

积分

中级会员

Rank: 4

积分
4013
发表于 2022-5-9 20:50:00 | 显示全部楼层
站位支持
回复 支持 反对

使用道具 举报

0

主题

1

帖子

10

积分

新手上路

Rank: 1

积分
10
发表于 2022-5-9 21:38:17 | 显示全部楼层
能下吗
回复

使用道具 举报

0

主题

472

帖子

2877

积分

注册会员

Rank: 2

积分
2877
发表于 2022-5-10 12:12:50 | 显示全部楼层
谢谢楼主分享
回复 支持 反对

使用道具 举报

0

主题

1337

帖子

4039

积分

4K家园VIP

Rank: 9Rank: 9Rank: 9

积分
4039
发表于 2022-5-11 07:50:50 | 显示全部楼层
有4K版卡,下个看下
回复 支持 反对

使用道具 举报

3

主题

1724

帖子

4766

积分

4K家园VIP

Rank: 9Rank: 9Rank: 9

积分
4766
发表于 2022-5-13 12:58:26 | 显示全部楼层
不错 支持下
回复 支持 反对

使用道具 举报

1

主题

1366

帖子

4116

积分

4K家园VIP

Rank: 9Rank: 9Rank: 9

积分
4116
发表于 2022-5-14 08:19:31 来自手机 | 显示全部楼层
沙发位出租,
回复 支持 反对

使用道具 举报

55

主题

1472

帖子

4274

积分

4K家园VIP

Rank: 9Rank: 9Rank: 9

积分
4274
发表于 2022-5-14 19:10:24 | 显示全部楼层
怎么这么大,希望我电视能看啊
回复 支持 反对

使用道具 举报

您需要登录后才可以回帖 登录 | 立即注册

本版积分规则

精彩图文
Archiver|手机版|TAG|Sitemap|新帖|专题|联系我们:邮箱: 4kjia.com@gmail.com   

4k家园   ©2019