[4K电影] 纸镇(内封简繁中字) / Paper Towns (2015) 4k高清版本下载

[复制链接]

2325

主题

2474

帖子

1万

积分

超级版主

Rank: 8Rank: 8

积分
17918
 楼主| 发表于 2022-5-9 21:34:34 | 显示全部楼层 |阅读模式
本帖最后由 最爱4K哟 于 2022-5-9 21:36 编辑

QQ图片20220509213343_副本.png

◎译  名 纸镇/纸上城市(台)
◎片  名 Paper Towns
◎年  代 2015
◎产  地 美国
◎类  别 剧情/爱情/悬疑
◎语  言 英语
◎上映日期 2015-07-24(美国)
◎IMDb评分  6.3/10 from 101750 users
◎IMDb链接  https://www.imdb.com/title/tt3622592/
◎豆瓣评分 6.2/10 from 8730 users
◎豆瓣链接 https://movie.douban.com/subject/25944282/
◎片  长 109分钟
◎导  演 杰克·施莱尔 Jake Schreier
◎主  演 纳特·沃尔夫 Nat Wolff
      卡拉·迪瓦伊 Cara Delevingne
      贾斯蒂斯·史密斯 Justice Smith
      奥斯汀·艾布拉姆斯 Austin Abrams
      豪斯顿·塞奇 Halston Sage
      洁丝·辛克莱 Jaz Sinclair
      格里芬·弗里曼 Griffin Freeman
      凯特琳·卡弗 Caitlin Carver
      卡拉·布欧诺 Cara Buono
      苏珊·马克·米勒 Susan Macke Miller
      汤姆·希尔曼 Tom Hillmann
      梅格·克罗斯比 Meg Crosbie
      吉姆·R·科曼 Jim R. Coleman



◎简  介


  昆汀(纳特·沃尔夫 Nat Wolff 饰)从小就单恋勇敢漂亮的邻居玛戈(卡拉·迪瓦伊 Cara Delevingne 饰),但两人多年的校园生活却是天差地别,没机会好好交流。一天夜里,玛戈突然潜入昆汀的房间,要求他协助报复她的花心男友,昆汀也乖乖答应。

  通宵冒险结束后 ,玛戈离奇失踪,她的家人和警察都认为这是她的一个小玩笑,只有昆汀察觉出其中异样。根据玛戈昨夜的反常举动与她刻意留下的蛛丝马迹,昆汀与他的朋友开始了寻找玛戈的旅程。一张惠特曼的诗歌残片、一段网站上的留言,线索零碎又环环相扣。昆汀发现他越接近目的地,越对自己的发小感到陌生……

  “你将前往纸上城市,永远不会回来。”玛戈留下的文字,引领昆汀逐步走进那座由现实与虚构交杂而成的纸上城市。

Video
ID : 1
Format : HEVC
Format/Info : High Efficiency Video Coding
Format profile : Main 10@L5@High
HDR format : SMPTE ST 2086, HDR10 compatible
Codec ID : V_MPEGH/ISO/HEVC
Duration : 1 h 49 min
Bit rate : 16.2 Mb/s
Width : 3 840 pixels
Height : 2 160 pixels
Display aspect ratio : 16:9
Frame rate mode : Constant
Frame rate : 23.976 (24000/1001) FPS
Color space : YUV
Chroma subsampling : 4:2:0
Bit depth : 10 bits
Bits/(Pixel*Frame) : 0.082
Stream size : 12.4 GiB (79%)
Language : English
Default : Yes
Forced : No
Color range : Limited
Color primaries : BT.2020
Transfer characteristics : PQ
Matrix coefficients : BT.2020 non-constant
Mastering display color primaries : Display P3
Mastering display luminance : min: 0.0050 cd/m2, max: 1000 cd/m2

Audio #1
ID : 2
Format : DTS XLL
Format/Info : Digital Theater Systems
Commercial name : DTS-HD Master Audio
Codec ID : A_DTS
Duration : 1 h 49 min
Bit rate mode : Variable
Bit rate : 3 851 kb/s
Channel(s) : 6 channels
Channel layout : C L R Ls Rs LFE
Sampling rate : 48.0 kHz
Frame rate : 93.750 FPS (512 SPF)
Bit depth : 24 bits
Compression mode : Lossless
Delay relative to video : 1 s 0 ms
Stream size : 2.93 GiB (19%)
Title : DTS-HD MA 5.1
Language : English
Default : Yes
Forced : No

Audio #2
ID : 3
Format : E-AC-3
Format/Info : Enhanced AC-3
Commercial name : Dolby Digital Plus
Codec ID : A_EAC3
Duration : 1 h 49 min
Bit rate mode : Constant
Bit rate : 256 kb/s
Channel(s) : 6 channels
Channel layout : L R C LFE Ls Rs
Sampling rate : 48.0 kHz
Frame rate : 31.250 FPS (1536 SPF)
Compression mode : Lossy
Stream size : 200 MiB (1%)
Language : English
Service kind : Complete Main
Default : No
Forced : No

Text #1
ID : 4
Format : UTF-8
Codec ID : S_TEXT/UTF8
Codec ID/Info : UTF-8 Plain Text
Duration : 1 h 43 min
Bit rate : 68 b/s
Count of elements : 1892
Stream size : 52.3 KiB (0%)
Title : English
Language : English
Default : Yes
Forced : No

Text #2
ID : 5
Format : UTF-8
Codec ID : S_TEXT/UTF8
Codec ID/Info : UTF-8 Plain Text
Duration : 1 h 41 min
Bit rate : 41 b/s
Count of elements : 1567
Stream size : 30.9 KiB (0%)
Title : 中文(香港)
Language : 中文
Default : No
Forced : No

Text #3
ID : 6
Format : UTF-8
Codec ID : S_TEXT/UTF8
Codec ID/Info : UTF-8 Plain Text
Duration : 1 h 48 min
Bit rate : 52 b/s
Count of elements : 1563
Stream size : 41.7 KiB (0%)
Title : 中文(简体)
Language : 中文
Default : No
Forced : No

Text #4
ID : 7
Format : UTF-8
Codec ID : S_TEXT/UTF8
Codec ID/Info : UTF-8 Plain Text
Duration : 1 h 48 min
Bit rate : 47 b/s
Count of elements : 1607
Stream size : 38.0 KiB (0%)
Title : 中文(繁体)
Language : 中文
Default : No
Forced : No


Text #5
ID : 8
Format : UTF-8
Codec ID : S_TEXT/UTF8
Codec ID/Info : UTF-8 Plain Text
Duration : 1 h 41 min
Bit rate : 55 b/s
Count of elements : 1167
Stream size : 41.6 KiB (0%)
Title : Danish
Language : Danish
Default : No
Forced : No

Text #6
ID : 9
Format : UTF-8
Codec ID : S_TEXT/UTF8
Codec ID/Info : UTF-8 Plain Text
Duration : 1 h 48 min
Bit rate : 55 b/s
Count of elements : 1365
Stream size : 44.3 KiB (0%)
Title : German
Language : German
Default : No
Forced : No

Text #7
ID : 10
Format : UTF-8
Codec ID : S_TEXT/UTF8
Codec ID/Info : UTF-8 Plain Text
Duration : 1 h 48 min
Bit rate : 52 b/s
Count of elements : 1501
Stream size : 41.5 KiB (0%)
Title : Spanish
Language : Spanish
Default : No
Forced : No

Text #8
ID : 11
Format : UTF-8
Codec ID : S_TEXT/UTF8
Codec ID/Info : UTF-8 Plain Text
Duration : 1 h 48 min
Bit rate : 53 b/s
Count of elements : 1463
Stream size : 42.8 KiB (0%)
Title : Spanish (Latinoamericano)
Language : Spanish
Default : No
Forced : No

Text #9
ID : 12
Format : UTF-8
Codec ID : S_TEXT/UTF8
Codec ID/Info : UTF-8 Plain Text
Duration : 1 h 48 min
Bit rate : 46 b/s
Count of elements : 1353
Stream size : 36.9 KiB (0%)
Title : French
Language : French
Default : No
Forced : No

Text #10
ID : 13
Format : UTF-8
Codec ID : S_TEXT/UTF8
Codec ID/Info : UTF-8 Plain Text
Duration : 1 h 48 min
Bit rate : 58 b/s
Count of elements : 1558
Stream size : 46.5 KiB (0%)
Title : French (Canadien)
Language : French
Default : No
Forced : No

Text #11
ID : 14
Format : UTF-8
Codec ID : S_TEXT/UTF8
Codec ID/Info : UTF-8 Plain Text
Duration : 1 h 48 min
Bit rate : 53 b/s
Count of elements : 1550
Stream size : 42.4 KiB (0%)
Title : Italian
Language : Italian
Default : No
Forced : No

Text #12
ID : 15
Format : UTF-8
Codec ID : S_TEXT/UTF8
Codec ID/Info : UTF-8 Plain Text
Duration : 1 h 48 min
Bit rate : 53 b/s
Count of elements : 1356
Stream size : 42.2 KiB (0%)
Title : Japanese
Language : Japanese
Default : No
Forced : No

Text #13
ID : 16
Format : UTF-8
Codec ID : S_TEXT/UTF8
Codec ID/Info : UTF-8 Plain Text
Duration : 1 h 48 min
Bit rate : 51 b/s
Count of elements : 1531
Stream size : 41.0 KiB (0%)
Title : Korean
Language : Korean
Default : No
Forced : No

Text #14
ID : 17
Format : UTF-8
Codec ID : S_TEXT/UTF8
Codec ID/Info : UTF-8 Plain Text
Duration : 1 h 48 min
Bit rate : 48 b/s
Count of elements : 1081
Stream size : 38.5 KiB (0%)
Title : Hungarian
Language : Hungarian
Default : No
Forced : No

Text #15
ID : 18
Format : UTF-8
Codec ID : S_TEXT/UTF8
Codec ID/Info : UTF-8 Plain Text
Duration : 1 h 48 min
Bit rate : 45 b/s
Count of elements : 1200
Stream size : 36.2 KiB (0%)
Title : Dutch
Language : Dutch
Default : No
Forced : No

Text #16
ID : 19
Format : UTF-8
Codec ID : S_TEXT/UTF8
Codec ID/Info : UTF-8 Plain Text
Duration : 1 h 41 min
Bit rate : 55 b/s
Count of elements : 1540
Stream size : 41.4 KiB (0%)
Title : Norwegian
Language : Norwegian
Default : No
Forced : No

Text #17
ID : 20
Format : UTF-8
Codec ID : S_TEXT/UTF8
Codec ID/Info : UTF-8 Plain Text
Duration : 1 h 48 min
Bit rate : 41 b/s
Count of elements : 1418
Stream size : 32.9 KiB (0%)
Title : Polish
Language : Polish
Default : No
Forced : No

Text #18
ID : 21
Format : UTF-8
Codec ID : S_TEXT/UTF8
Codec ID/Info : UTF-8 Plain Text
Duration : 1 h 48 min
Bit rate : 56 b/s
Count of elements : 1532
Stream size : 44.5 KiB (0%)
Title : Portuguese
Language : Portuguese
Default : No
Forced : No

Text #19
ID : 22
Format : UTF-8
Codec ID : S_TEXT/UTF8
Codec ID/Info : UTF-8 Plain Text
Duration : 1 h 48 min
Bit rate : 58 b/s
Count of elements : 1535
Stream size : 46.6 KiB (0%)
Title : Portuguese (Brasil)
Language : Portuguese
Default : No
Forced : No

Text #20
ID : 23
Format : UTF-8
Codec ID : S_TEXT/UTF8
Codec ID/Info : UTF-8 Plain Text
Duration : 1 h 48 min
Bit rate : 54 b/s
Count of elements : 1542
Stream size : 43.6 KiB (0%)
Title : Romanian
Language : Romanian
Default : No
Forced : No

Text #21
ID : 24
Format : UTF-8
Codec ID : S_TEXT/UTF8
Codec ID/Info : UTF-8 Plain Text
Duration : 1 h 48 min
Bit rate : 50 b/s
Count of elements : 1548
Stream size : 39.8 KiB (0%)
Title : Slovak
Language : Slovak
Default : No
Forced : No

Text #22
ID : 25
Format : UTF-8
Codec ID : S_TEXT/UTF8
Codec ID/Info : UTF-8 Plain Text
Duration : 1 h 48 min
Bit rate : 44 b/s
Count of elements : 1534
Stream size : 35.3 KiB (0%)
Title : Finnish
Language : Finnish
Default : No
Forced : No

Text #23
ID : 26
Format : UTF-8
Codec ID : S_TEXT/UTF8
Codec ID/Info : UTF-8 Plain Text
Duration : 1 h 41 min
Bit rate : 58 b/s
Count of elements : 1547
Stream size : 43.3 KiB (0%)
Title : Swedish
Language : Swedish
Default : No
Forced : No

Text #24
ID : 27
Format : UTF-8
Codec ID : S_TEXT/UTF8
Codec ID/Info : UTF-8 Plain Text
Duration : 1 h 48 min
Bit rate : 59 b/s
Count of elements : 1556
Stream size : 46.9 KiB (0%)
Title : Turkish
Language : Turkish
Default : No
Forced : No

Text #25
ID : 28
Format : UTF-8
Codec ID : S_TEXT/UTF8
Codec ID/Info : UTF-8 Plain Text
Duration : 1 h 48 min
Bit rate : 57 b/s
Count of elements : 1353
Stream size : 45.6 KiB (0%)
Title : Icelandic
Language : Icelandic
Default : No
Forced : No

Text #26
ID : 29
Format : UTF-8
Codec ID : S_TEXT/UTF8
Codec ID/Info : UTF-8 Plain Text
Duration : 1 h 42 min
Bit rate : 58 b/s
Count of elements : 1554
Stream size : 43.5 KiB (0%)
Title : Czech
Language : Czech
Default : No
Forced : No

Text #27
ID : 30
Format : PGS
Muxing mode : zlib
Codec ID : S_HDMV/PGS
Codec ID/Info : Picture based subtitle format used on BDs/HD-DVDs
Duration : 1 h 41 min
Bit rate : 37.5 kb/s
Count of elements : 3028
Stream size : 27.3 MiB (0%)
Language : English
Default : No
Forced : No

Text #28
ID : 31
Format : PGS
Muxing mode : zlib
Codec ID : S_HDMV/PGS
Codec ID/Info : Picture based subtitle format used on BDs/HD-DVDs
Duration : 1 h 48 min
Bit rate : 30.2 kb/s
Count of elements : 3134
Stream size : 23.4 MiB (0%)
Language : Chinese
Default : No
Forced : No

Text #29
ID : 32
Format : PGS
Muxing mode : zlib
Codec ID : S_HDMV/PGS
Codec ID/Info : Picture based subtitle format used on BDs/HD-DVDs
Duration : 1 h 48 min
Bit rate : 31.9 kb/s
Count of elements : 2306
Stream size : 24.7 MiB (0%)
Language : Danish
Default : No
Forced : No

Text #30
ID : 33
Format : PGS
Muxing mode : zlib
Codec ID : S_HDMV/PGS
Codec ID/Info : Picture based subtitle format used on BDs/HD-DVDs
Duration : 1 h 48 min
Bit rate : 28.4 kb/s
Count of elements : 2400
Stream size : 22.0 MiB (0%)
Language : Dutch
Default : No
Forced : No

Text #31
ID : 34
Format : PGS
Muxing mode : zlib
Codec ID : S_HDMV/PGS
Codec ID/Info : Picture based subtitle format used on BDs/HD-DVDs
Duration : 1 h 48 min
Bit rate : 36.7 kb/s
Count of elements : 3088
Stream size : 28.4 MiB (0%)
Language : Estonian
Default : No
Forced : No

Text #32
ID : 35
Format : PGS
Muxing mode : zlib
Codec ID : S_HDMV/PGS
Codec ID/Info : Picture based subtitle format used on BDs/HD-DVDs
Duration : 1 h 48 min
Bit rate : 28.1 kb/s
Count of elements : 3072
Stream size : 21.8 MiB (0%)
Language : Finnish
Default : No
Forced : No

Text #33
ID : 36
Format : PGS
Muxing mode : zlib
Codec ID : S_HDMV/PGS
Codec ID/Info : Picture based subtitle format used on BDs/HD-DVDs
Duration : 1 h 48 min
Bit rate : 27.4 kb/s
Count of elements : 2708
Stream size : 21.3 MiB (0%)
Language : French
Default : No
Forced : No

Text #34
ID : 37
Format : PGS
Muxing mode : zlib
Codec ID : S_HDMV/PGS
Codec ID/Info : Picture based subtitle format used on BDs/HD-DVDs
Duration : 1 h 48 min
Bit rate : 35.5 kb/s
Count of elements : 2730
Stream size : 27.5 MiB (0%)
Language : German
Default : No
Forced : No

Text #35
ID : 38
Format : PGS
Muxing mode : zlib
Codec ID : S_HDMV/PGS
Codec ID/Info : Picture based subtitle format used on BDs/HD-DVDs
Duration : 1 h 48 min
Bit rate : 33.0 kb/s
Count of elements : 3108
Stream size : 25.6 MiB (0%)
Language : Italian
Default : No
Forced : No

Text #36
ID : 39
Format : PGS
Muxing mode : zlib
Codec ID : S_HDMV/PGS
Codec ID/Info : Picture based subtitle format used on BDs/HD-DVDs
Duration : 1 h 48 min
Bit rate : 21.0 kb/s
Count of elements : 2712
Stream size : 16.2 MiB (0%)
Language : Japanese
Default : No
Forced : No

Text #37
ID : 40
Format : PGS
Muxing mode : zlib
Codec ID : S_HDMV/PGS
Codec ID/Info : Picture based subtitle format used on BDs/HD-DVDs
Duration : 1 h 48 min
Bit rate : 32.2 kb/s
Count of elements : 3116
Stream size : 25.0 MiB (0%)
Language : Latvian
Default : No
Forced : No

Text #38
ID : 41
Format : PGS
Muxing mode : zlib
Codec ID : S_HDMV/PGS
Codec ID/Info : Picture based subtitle format used on BDs/HD-DVDs
Duration : 1 h 48 min
Bit rate : 33.2 kb/s
Count of elements : 3076
Stream size : 25.7 MiB (0%)
Language : Lithuanian
Default : No
Forced : No

Text #39
ID : 42
Format : PGS
Muxing mode : zlib
Codec ID : S_HDMV/PGS
Codec ID/Info : Picture based subtitle format used on BDs/HD-DVDs
Duration : 1 h 48 min
Bit rate : 32.3 kb/s
Count of elements : 3102
Stream size : 25.1 MiB (0%)
Language : Norwegian
Default : No
Forced : No

Text #40
ID : 43
Format : PGS
Muxing mode : zlib
Codec ID : S_HDMV/PGS
Codec ID/Info : Picture based subtitle format used on BDs/HD-DVDs
Duration : 1 h 48 min
Bit rate : 34.3 kb/s
Count of elements : 3128
Stream size : 26.6 MiB (0%)
Language : Russian
Default : No
Forced : No

Text #41
ID : 44
Format : PGS
Muxing mode : zlib
Codec ID : S_HDMV/PGS
Codec ID/Info : Picture based subtitle format used on BDs/HD-DVDs
Duration : 1 h 48 min
Bit rate : 32.4 kb/s
Count of elements : 3012
Stream size : 25.1 MiB (0%)
Language : Spanish
Default : No
Forced : No

Text #42
ID : 45
Format : PGS
Muxing mode : zlib
Codec ID : S_HDMV/PGS
Codec ID/Info : Picture based subtitle format used on BDs/HD-DVDs
Duration : 1 h 48 min
Bit rate : 33.3 kb/s
Count of elements : 3112
Stream size : 25.8 MiB (0%)
Language : Swedish
Default : No
Forced : No

Text #43
ID : 46
Format : PGS
Muxing mode : zlib
Codec ID : S_HDMV/PGS
Codec ID/Info : Picture based subtitle format used on BDs/HD-DVDs
Duration : 1 h 48 min
Bit rate : 35.4 kb/s
Count of elements : 3104
Stream size : 27.4 MiB (0%)
Language : Ukrainian
Default : No
Forced : No

Menu
00:00:00.000 : en:Chapter 1
00:03:59.239 : en:Chapter 2
00:06:03.196 : en:Chapter 3
00:09:06.629 : en:Chapter 4
00:11:11.379 : en:Chapter 5
00:13:35.064 : en:Chapter 6
00:18:08.212 : en:Chapter 7
00:22:26.011 : en:Chapter 8
00:27:34.528 : en:Chapter 9
00:31:18.210 : en:Chapter 10
00:33:18.747 : en:Chapter 11
00:37:51.311 : en:Chapter 12
00:40:43.983 : en:Chapter 13
00:43:56.551 : en:Chapter 14
00:48:08.803 : en:Chapter 15
00:50:20.100 : en:Chapter 16
00:54:39.193 : en:Chapter 17
00:59:02.706 : en:Chapter 18
01:02:55.021 : en:Chapter 19
01:06:57.931 : en:Chapter 20
01:13:01.085 : en:Chapter 21
01:16:49.480 : en:Chapter 22
01:21:41.522 : en:Chapter 23
01:26:22.094 : en:Chapter 24
01:33:31.147 : en:Chapter 25
01:36:36.499 : en:Chapter 26
01:39:32.967 : en:Chapter 27
01:42:31.395 : en:Chapter 28

资源速度为零或资源敏感被和谐时,推荐使用qBittorrent等下载软件,有条件的推荐115更好的下载软件!

下载地址:


游客,如果您要查看本帖隐藏内容请回复



.



上一篇:天空中的露西 (简繁中字) / Lucy in the Sky (2019) 4k高清版本下载
下一篇:准备好了没 (内封简繁中字) / Ready or Not (2019) 4k高清版本下载
回复

使用道具 举报

6

主题

1235

帖子

3731

积分

4K家园VIP

Rank: 9Rank: 9Rank: 9

积分
3731
发表于 2022-5-9 21:34:38 | 显示全部楼层
4K电影下个试试
回复 支持 反对

使用道具 举报

0

主题

1

帖子

10

积分

新手上路

Rank: 1

积分
10
发表于 2022-5-10 12:29:18 | 显示全部楼层
1打算大苏打实打实大苏打
回复 支持 反对

使用道具 举报

0

主题

2

帖子

13

积分

新手上路

Rank: 1

积分
13
发表于 2022-5-10 14:04:40 | 显示全部楼层
我来看看要不要金币。。。。
回复 支持 反对

使用道具 举报

0

主题

46

帖子

1542

积分

4K家园VIP

Rank: 9Rank: 9Rank: 9

积分
1542
发表于 2022-5-10 15:15:57 | 显示全部楼层
神秘电影,一下好看。
回复 支持 反对

使用道具 举报

40

主题

1529

帖子

4349

积分

4K家园VIP

Rank: 9Rank: 9Rank: 9

积分
4349
发表于 2022-5-10 19:57:29 来自手机 | 显示全部楼层
4K版的应该更清晰吧
回复 支持 反对

使用道具 举报

0

主题

8

帖子

43

积分

4K家园VIP

Rank: 9Rank: 9Rank: 9

积分
43
发表于 2022-5-12 09:26:08 | 显示全部楼层
听说过这个影片。。
回复 支持 反对

使用道具 举报

4

主题

1322

帖子

3986

积分

4K家园VIP

Rank: 9Rank: 9Rank: 9

积分
3986
发表于 2022-5-12 18:05:24 | 显示全部楼层
楼主这资源不错,我收藏了
回复 支持 反对

使用道具 举报

61

主题

1495

帖子

4309

积分

4K家园VIP

Rank: 9Rank: 9Rank: 9

积分
4309
发表于 2022-5-13 00:47:58 | 显示全部楼层
前排顶,很好!
回复 支持 反对

使用道具 举报

41

主题

1544

帖子

4408

积分

4K家园VIP

Rank: 9Rank: 9Rank: 9

积分
4408
发表于 2022-5-13 18:05:52 | 显示全部楼层
啊啊啊啊啊啊啊啊啊啊啊
回复 支持 反对

使用道具 举报

您需要登录后才可以回帖 登录 | 立即注册

本版积分规则

精彩图文
Archiver|手机版|TAG|Sitemap|新帖|专题|联系我们:邮箱: 4kjia.com@gmail.com   

4k家园   ©2019