[4K电影] 准备好了没 (内封简繁中字) / Ready or Not (2019) 4k高清版本下载

[复制链接]

2325

主题

2474

帖子

1万

积分

超级版主

Rank: 8Rank: 8

积分
17918
 楼主| 发表于 2022-5-9 21:47:55 | 显示全部楼层 |阅读模式
本帖最后由 最爱4K哟 于 2022-5-9 21:51 编辑

183802flfd8zrinp8di7fg.jpg

◎译  名 准备好了没/弑婚游戏(台)/爆血新婚夜(港)
◎片  名 Ready or Not
◎年  代 2019
◎产  地 加拿大,美国
◎类  别 悬疑 / 惊悚 / 恐怖
◎语  言 英语
◎上映日期 2019-08-21(美国)
◎IMDb评分  6.8/10 from 140632 users
◎IMDb链接  https://www.imdb.com/title/tt7798634/
◎豆瓣评分 6.7/10 from 73253 users
◎豆瓣链接 https://movie.douban.com/subject/27594938/
◎片  长 95分钟
◎导  演 马特·贝蒂内利-奥尔平 Matt Bettinelli-Olpin / 泰勒·吉勒特 Tyler Gillett
◎编  剧 盖伊·比尤西克 Guy Busick / R. Christopher Murphy
◎主  演 萨玛拉·维文 Samara Weaving
       安迪·麦克道威尔 Andie MacDowell
       马克·奥布莱恩 Mark O'Brien
       亚当·布罗迪 Adam Brody
       亨利·科泽尼 Henry Czerny
       妮基·瓜达尼 Nicky Guadagni
       梅兰妮·斯科洛凡诺 Melanie Scrofano
       克里斯蒂安·布鲁恩 Kristian Bruun
       伊利斯·莱韦斯克 Elyse Levesque
       约翰·拉尔斯顿 John Ralston
       达妮埃拉·巴博萨 Daniela Barbosa
       伊拉娜·盖尔 Elana Gale
       安德鲁·安东尼 Andrew Anthony
       约翰·浩克斯 John Hawkes
       利亚姆·麦克唐纳 Liam MacDonald
       汉娜克·塔波特 Hanneke Talbot


◎简  介

   格雷斯(萨玛拉·维文 Samara Weaving 饰)自幼失去双亲,成长在寄养家庭之中,这样的她再也没有想到自己竟然邂逅了豪门之子亚里克斯(马克·奥布莱恩 Mark O'Brien 饰),两人的恋爱顺利,通往婚姻的道路一路亮起绿灯。

  终于,格雷斯满心期待的那一天到来了,然而,在新婚之夜,亚里克斯却告诉了格雷斯一个非常古怪的消息。原来,在亚里克斯的家族中流传着这样一个传统,每一位嫁进来的新娘都必须在结婚当晚完成一个游戏,而游戏的具体内容则由抽牌来决定。虽然对这样的规矩万分不理解,但格雷斯还是决定忍一时风平浪静。万万没想到,格雷斯抽到了最糟糕的那张牌——捉迷藏,格雷斯必须在天亮之前找到一个可以躲藏的地方,不能够被任何的人发现,否则就只有死路一条。

Video
ID : 1
Format : HEVC
Format/Info : High Efficiency Video Coding
Format profile : Main 10@L5@High
HDR format : Dolby Vision, Version 1.0, dvhe.05.06, BL+RPU
Codec ID : V_MPEGH/ISO/HEVC
Duration : 1 h 35 min
Bit rate : 16.5 Mb/s
Width : 3 840 pixels
Height : 2 160 pixels
Display aspect ratio : 16:9
Frame rate mode : Constant
Frame rate : 23.976 (24000/1001) FPS
Color space : YUV
Chroma subsampling : 4:2:0
Bit depth : 10 bits
Bits/(Pixel*Frame) : 0.083
Stream size : 11.0 GiB (80%)
Language : English
Default : Yes
Forced : No
Color range : Full

Audio #1
ID : 2
Format : DTS XLL
Format/Info : Digital Theater Systems
Commercial name : DTS-HD Master Audio
Codec ID : A_DTS
Duration : 1 h 35 min
Bit rate mode : Variable
Bit rate : 3 698 kb/s
Channel(s) : 6 channels
Channel layout : C L R Ls Rs LFE
Sampling rate : 48.0 kHz
Frame rate : 93.750 FPS (512 SPF)
Bit depth : 24 bits
Compression mode : Lossless
Stream size : 2.46 GiB (18%)
Title : DTS-HD MA 5.1
Language : English
Default : Yes
Forced : No

Audio #2
ID : 3
Format : E-AC-3
Format/Info : Enhanced AC-3
Commercial name : Dolby Digital Plus
Codec ID : A_EAC3
Duration : 1 h 35 min
Bit rate mode : Constant
Bit rate : 256 kb/s
Channel(s) : 6 channels
Channel layout : L R C LFE Ls Rs
Sampling rate : 48.0 kHz
Frame rate : 31.250 FPS (1536 SPF)
Compression mode : Lossy
Stream size : 175 MiB (1%)
Language : English
Service kind : Complete Main
Default : No
Forced : No

Text #1
ID : 4
Format : UTF-8
Codec ID : S_TEXT/UTF8
Codec ID/Info : UTF-8 Plain Text
Duration : 1 h 35 min
Bit rate : 58 b/s
Count of elements : 1363
Stream size : 40.9 KiB (0%)
Title : English
Language : English
Default : Yes
Forced : No

Text #2
ID : 5
Format : UTF-8
Codec ID : S_TEXT/UTF8
Codec ID/Info : UTF-8 Plain Text
Duration : 1 h 34 min
Bit rate : 35 b/s
Count of elements : 1137
Stream size : 24.6 KiB (0%)
Title : 中文(粤语)
Language : 中文
Default : No
Forced : No

Text #3
ID : 6
Format : UTF-8
Codec ID : S_TEXT/UTF8
Codec ID/Info : UTF-8 Plain Text
Duration : 1 h 34 min
Bit rate : 41 b/s
Count of elements : 1136
Stream size : 28.8 KiB (0%)
Title : 中文(简体)
Language : 中文
Default : No
Forced : No

Text #4
ID : 7
Format : UTF-8
Codec ID : S_TEXT/UTF8
Codec ID/Info : UTF-8 Plain Text
Duration : 1 h 34 min
Bit rate : 39 b/s
Count of elements : 1133
Stream size : 27.3 KiB (0%)
Title : 中文(繁体)
Language : 中文
Default : No
Forced : No

Text #5
ID : 8
Format : UTF-8
Codec ID : S_TEXT/UTF8
Codec ID/Info : UTF-8 Plain Text
Duration : 1 h 34 min
Bit rate : 43 b/s
Count of elements : 793
Stream size : 30.1 KiB (0%)
Title : Danish
Language : Danish
Default : No
Forced : No

Text #6
ID : 9
Format : UTF-8
Codec ID : S_TEXT/UTF8
Codec ID/Info : UTF-8 Plain Text
Duration : 1 h 33 min
Bit rate : 44 b/s
Count of elements : 1003
Stream size : 30.6 KiB (0%)
Title : German
Language : German
Default : No
Forced : No

Text #7
ID : 10
Format : UTF-8
Codec ID : S_TEXT/UTF8
Codec ID/Info : UTF-8 Plain Text
Duration : 1 h 34 min
Bit rate : 44 b/s
Count of elements : 1159
Stream size : 30.9 KiB (0%)
Title : Spanish
Language : Spanish
Default : No
Forced : No

Text #8
ID : 11
Format : UTF-8
Codec ID : S_TEXT/UTF8
Codec ID/Info : UTF-8 Plain Text
Duration : 1 h 34 min
Bit rate : 44 b/s
Count of elements : 1119
Stream size : 30.9 KiB (0%)
Title : Spanish (Latinoamericano)
Language : Spanish
Default : No
Forced : No

Text #9
ID : 12
Format : UTF-8
Codec ID : S_TEXT/UTF8
Codec ID/Info : UTF-8 Plain Text
Duration : 1 h 34 min
Bit rate : 40 b/s
Count of elements : 990
Stream size : 27.7 KiB (0%)
Title : French
Language : French
Default : No
Forced : No

Text #10
ID : 13
Format : UTF-8
Codec ID : S_TEXT/UTF8
Codec ID/Info : UTF-8 Plain Text
Duration : 1 h 34 min
Bit rate : 53 b/s
Count of elements : 1124
Stream size : 37.2 KiB (0%)
Title : French (Canadien)
Language : French
Default : No
Forced : No

Text #11
ID : 14
Format : UTF-8
Codec ID : S_TEXT/UTF8
Codec ID/Info : UTF-8 Plain Text
Duration : 1 h 33 min
Bit rate : 44 b/s
Count of elements : 1111
Stream size : 30.7 KiB (0%)
Title : Italian
Language : Italian
Default : No
Forced : No

Text #12
ID : 15
Format : UTF-8
Codec ID : S_TEXT/UTF8
Codec ID/Info : UTF-8 Plain Text
Duration : 1 h 34 min
Bit rate : 42 b/s
Count of elements : 983
Stream size : 29.1 KiB (0%)
Title : Japanese
Language : Japanese
Default : No
Forced : No

Text #13
ID : 16
Format : UTF-8
Codec ID : S_TEXT/UTF8
Codec ID/Info : UTF-8 Plain Text
Duration : 1 h 34 min
Bit rate : 47 b/s
Count of elements : 1139
Stream size : 33.2 KiB (0%)
Title : Korean
Language : Korean
Default : No
Forced : No

Text #14
ID : 17
Format : UTF-8
Codec ID : S_TEXT/UTF8
Codec ID/Info : UTF-8 Plain Text
Duration : 1 h 33 min
Bit rate : 45 b/s
Count of elements : 1115
Stream size : 31.0 KiB (0%)
Title : Hungarian
Language : Hungarian
Default : No
Forced : No

Text #15
ID : 18
Format : UTF-8
Codec ID : S_TEXT/UTF8
Codec ID/Info : UTF-8 Plain Text
Duration : 1 h 33 min
Bit rate : 38 b/s
Count of elements : 993
Stream size : 26.8 KiB (0%)
Title : Dutch
Language : Dutch
Default : No
Forced : No

Text #16
ID : 19
Format : UTF-8
Codec ID : S_TEXT/UTF8
Codec ID/Info : UTF-8 Plain Text
Duration : 1 h 33 min
Bit rate : 45 b/s
Count of elements : 1116
Stream size : 31.0 KiB (0%)
Title : Norwegian
Language : Norwegian
Default : No
Forced : No

Text #17
ID : 20
Format : UTF-8
Codec ID : S_TEXT/UTF8
Codec ID/Info : UTF-8 Plain Text
Duration : 1 h 34 min
Bit rate : 40 b/s
Count of elements : 1113
Stream size : 28.0 KiB (0%)
Title : Polish
Language : Polish
Default : No
Forced : No

Text #18
ID : 21
Format : UTF-8
Codec ID : S_TEXT/UTF8
Codec ID/Info : UTF-8 Plain Text
Duration : 1 h 34 min
Bit rate : 46 b/s
Count of elements : 1107
Stream size : 32.0 KiB (0%)
Title : Portuguese
Language : Portuguese
Default : No
Forced : No

Text #19
ID : 22
Format : UTF-8
Codec ID : S_TEXT/UTF8
Codec ID/Info : UTF-8 Plain Text
Duration : 1 h 34 min
Bit rate : 41 b/s
Count of elements : 1127
Stream size : 28.8 KiB (0%)
Title : Portuguese (Brasil)
Language : Portuguese
Default : No
Forced : No

Text #20
ID : 23
Format : UTF-8
Codec ID : S_TEXT/UTF8
Codec ID/Info : UTF-8 Plain Text
Duration : 1 h 34 min
Bit rate : 46 b/s
Count of elements : 1129
Stream size : 32.2 KiB (0%)
Title : Romanian
Language : Romanian
Default : No
Forced : No

Text #21
ID : 24
Format : UTF-8
Codec ID : S_TEXT/UTF8
Codec ID/Info : UTF-8 Plain Text
Duration : 1 h 34 min
Bit rate : 42 b/s
Count of elements : 1132
Stream size : 29.7 KiB (0%)
Title : Slovak
Language : Slovak
Default : No
Forced : No

Text #22
ID : 25
Format : UTF-8
Codec ID : S_TEXT/UTF8
Codec ID/Info : UTF-8 Plain Text
Duration : 1 h 34 min
Bit rate : 43 b/s
Count of elements : 1117
Stream size : 30.2 KiB (0%)
Title : Finnish
Language : Finnish
Default : No
Forced : No

Text #23
ID : 26
Format : UTF-8
Codec ID : S_TEXT/UTF8
Codec ID/Info : UTF-8 Plain Text
Duration : 1 h 33 min
Bit rate : 43 b/s
Count of elements : 1108
Stream size : 30.1 KiB (0%)
Title : Swedish
Language : Swedish
Default : No
Forced : No

Text #24
ID : 27
Format : UTF-8
Codec ID : S_TEXT/UTF8
Codec ID/Info : UTF-8 Plain Text
Duration : 1 h 34 min
Bit rate : 49 b/s
Count of elements : 1130
Stream size : 34.0 KiB (0%)
Title : Turkish
Language : Turkish
Default : No
Forced : No

Text #25
ID : 28
Format : UTF-8
Codec ID : S_TEXT/UTF8
Codec ID/Info : UTF-8 Plain Text
Duration : 1 h 34 min
Bit rate : 56 b/s
Count of elements : 1132
Stream size : 38.9 KiB (0%)
Title : Icelandic
Language : Icelandic
Default : No
Forced : No

Text #26
ID : 29
Format : UTF-8
Codec ID : S_TEXT/UTF8
Codec ID/Info : UTF-8 Plain Text
Duration : 1 h 34 min
Bit rate : 44 b/s
Count of elements : 1132
Stream size : 31.2 KiB (0%)
Title : Czech
Language : Czech
Default : No
Forced : No

Text #27
ID : 30
Format : PGS
Muxing mode : zlib
Codec ID : S_HDMV/PGS
Codec ID/Info : Picture based subtitle format used on BDs/HD-DVDs
Duration : 1 h 35 min
Bit rate : 35.2 kb/s
Count of elements : 2726
Stream size : 24.0 MiB (0%)
Title : English (SDH)
Language : English
Default : No
Forced : No

Text #28
ID : 31
Format : PGS
Muxing mode : zlib
Codec ID : S_HDMV/PGS
Codec ID/Info : Picture based subtitle format used on BDs/HD-DVDs
Duration : 1 h 34 min
Bit rate : 30.7 kb/s
Count of elements : 2260
Stream size : 20.8 MiB (0%)
Title : French
Language : French
Default : No
Forced : No

Text #29
ID : 32
Format : PGS
Muxing mode : zlib
Codec ID : S_HDMV/PGS
Codec ID/Info : Picture based subtitle format used on BDs/HD-DVDs
Duration : 1 h 34 min
Bit rate : 26.8 kb/s
Count of elements : 2249
Stream size : 18.1 MiB (0%)
Title : Spanish (Latin American)
Language : Spanish
Default : No
Forced : No

Menu
00:00:00.000 : en:Chapter 01
00:03:11.817 : en:Chapter 02
00:06:49.534 : en:Chapter 03
00:09:27.776 : en:Chapter 04
00:12:27.038 : en:Chapter 05
00:16:24.150 : en:Chapter 06
00:21:57.942 : en:Chapter 07
00:25:21.061 : en:Chapter 08
00:28:00.262 : en:Chapter 09
00:31:21.922 : en:Chapter 10
00:34:46.459 : en:Chapter 11
00:36:08.625 : en:Chapter 12
00:38:23.760 : en:Chapter 13
00:41:55.930 : en:Chapter 14
00:45:40.363 : en:Chapter 15
00:48:03.047 : en:Chapter 16
00:51:50.441 : en:Chapter 17
00:54:05.075 : en:Chapter 18
00:57:05.088 : en:Chapter 19
00:59:52.714 : en:Chapter 20
01:01:37.903 : en:Chapter 21
01:04:01.671 : en:Chapter 22
01:07:31.422 : en:Chapter 23
01:09:25.828 : en:Chapter 24
01:11:48.304 : en:Chapter 25
01:15:59.722 : en:Chapter 26
01:18:34.585 : en:Chapter 27
01:21:39.645 : en:Chapter 28
01:24:07.292 : en:Chapter 29
01:27:48.013 : en:Chapter 30
01:29:22.315 : en:Chapter 31
01:30:49.152 : en:Chapter 32

资源速度为零或资源敏感被和谐时,推荐使用qBittorrent等下载软件,有条件的推荐115更好的下载软件!

下载地址:


游客,如果您要查看本帖隐藏内容请回复

游客,如果您要查看本帖隐藏内容请回复



.


上一篇:纸镇(内封简繁中字) / Paper Towns (2015) 4k高清版本下载
下一篇:迷失之城 / The Lost City (2022) 4k高清版本下载
回复

使用道具 举报

0

主题

1239

帖子

3731

积分

4K家园VIP

Rank: 9Rank: 9Rank: 9

积分
3731
发表于 2022-5-9 21:48:00 | 显示全部楼层
秀起来~
回复 支持 反对

使用道具 举报

0

主题

1

帖子

11

积分

新手上路

Rank: 1

积分
11
发表于 2022-5-10 10:35:39 | 显示全部楼层
bbbgfrhg.jpg
回复 支持 反对

使用道具 举报

0

主题

1

帖子

6

积分

新手上路

Rank: 1

积分
6
发表于 2022-5-12 02:49:21 | 显示全部楼层

naked girls live stream

naked girls live stream
回复 支持 反对

使用道具 举报

0

主题

15

帖子

933

积分

新手上路

Rank: 1

积分
933
发表于 2022-5-12 07:47:32 | 显示全部楼层
谢谢分享,下来观赏
回复 支持 反对

使用道具 举报

0

主题

8

帖子

43

积分

4K家园VIP

Rank: 9Rank: 9Rank: 9

积分
43
发表于 2022-5-12 09:25:06 | 显示全部楼层
这么快就有4K啦。
回复 支持 反对

使用道具 举报

55

主题

1472

帖子

4274

积分

4K家园VIP

Rank: 9Rank: 9Rank: 9

积分
4274
发表于 2022-5-18 06:58:03 | 显示全部楼层
前排支持下了哦~
回复 支持 反对

使用道具 举报

40

主题

1506

帖子

4322

积分

4K家园VIP

Rank: 9Rank: 9Rank: 9

积分
4322
发表于 2022-5-19 23:48:31 | 显示全部楼层
我也来顶一下..
回复 支持 反对

使用道具 举报

40

主题

1520

帖子

4372

积分

4K家园VIP

Rank: 9Rank: 9Rank: 9

积分
4372
发表于 2022-5-25 15:54:45 | 显示全部楼层
额.....这个可以有
回复 支持 反对

使用道具 举报

48

主题

1553

帖子

4469

积分

4K家园VIP

Rank: 9Rank: 9Rank: 9

积分
4469
发表于 2022-5-26 22:02:28 | 显示全部楼层
支持,楼下的跟上哈~
回复 支持 反对

使用道具 举报

您需要登录后才可以回帖 登录 | 立即注册

本版积分规则

精彩图文
Archiver|手机版|TAG|Sitemap|新帖|专题|联系我们:邮箱: 4kjia.com@gmail.com   

4k家园   ©2019