[4K电影] 迷失之城 / The Lost City (2022) 4k高清版本下载

[复制链接]

1571

主题

1640

帖子

1万

积分

超级版主

Rank: 8Rank: 8

积分
17557
 楼主| 发表于 2022-5-10 14:51:29 | 显示全部楼层 |阅读模式
本帖最后由 最爱4K哟 于 2022-5-22 20:46 编辑

QQ图片20220510143611_副本.png

◎译  名 迷失之城 / 迷失D城 / Lost City of D / 失惊无神闯谜城(港) / 失落谜城(台)
◎片  名 The Lost City
◎年  代 2022
◎产  地 美国
◎类  别 喜剧 / 动作 / 冒险
◎语  言 英语
◎上映日期 2022-03-25(美国)
◎IMDb评分  6.5/10 from 21403 users
◎IMDb链接  https://www.imdb.com/title/tt13320622/
◎豆瓣评分 6.1/10 from 774 users
◎豆瓣链接 https://movie.douban.com/subject/35303842/
◎片  长 112分钟
◎导  演 艾伦·尼 Aaron Nee /  亚当·尼 Adam Nee
◎编  剧 奥伦·尤济尔 Oren Uziel / 达纳·福克斯 Dana Fox / 亚当·尼 Adam Nee / 艾伦·尼 Aaron Nee / 赛斯·戈登 Seth Gordon
◎演  员 桑德拉·布洛克 Sandra Bullock
       查宁·塔图姆 Channing Tatum
       丹尼尔·雷德克里夫 Daniel Radcliffe
       达明·乔伊·伦道夫 Da'Vine Joy Randolph
       布拉德·皮特 Brad Pitt
       奥斯卡·努内斯 Oscar Nu?ez
       帕蒂·哈里森 Patti Harrison
       杨伯文 Bowen Yang
       乔安·普林格尔 Joan Pringle
       赫克托·阿尼巴尔 Héctor Aníbal
       托马斯·福布斯·约翰逊 Thomas Forbes-Johnson
       斯莱·刘易斯 Sli Lewis
       亚当·尼 Adam Nee
       雷蒙德·李 Raymond Lee
       安东尼·阿尔瓦雷斯 Anthony Alvarez
       马西·哈罗 Marcy Jarreau
       瑞恩·贾德 Ryan Judd
       莉莎·蔡辛 Liza Chasin
       桑德拉·布洛克 Sandra Bullock
       赛斯·戈登 Seth Gordon
       玛琳·斯图尔特 Marlene Stewart

◎简  介

  洛蕾塔·塞琪(桑德拉·布洛克 饰)是一位才华横溢但与世隔绝的作家。在她的畅销爱情冒险小说里,总会出现许多奇异的地方。而作为本书的封面模特,艾伦(查宁·塔图姆 饰)一生都在致力于展现书中英雄角色“达什”的个人魅力。 ” 在与艾伦一起宣传新书时,洛雷塔被一位古怪的亿万富翁(丹尼尔·雷德克里夫 饰)绑架。这位亿万富翁坚信,洛蕾塔的新书能带领他找到失落古城中的宝藏。 与此同时,艾伦为了证明自己可以成为现实中的英雄,而不仅仅是洛蕾塔虚构的人物,决定前去营救她。这对极不对付的搭档需要共同努力,才能在险恶的丛林中生存下来,并在亿万富翁赶到前找到古老的宝藏。

Video
ID : 1
Format : HEVC
Format/Info : High Efficiency Video Coding
Format profile : Main 10@L5@High
HDR format : Dolby Vision, Version 1.0, dvhe.05.06, BL+RPU
Codec ID : V_MPEGH/ISO/HEVC
Duration : 1 h 51 min
Bit rate : 14.3 Mb/s
Width : 3 840 pixels
Height : 1 608 pixels
Display aspect ratio : 2.40:1
Frame rate mode : Constant
Frame rate : 23.976 (24000/1001) FPS
Color space : YUV
Chroma subsampling : 4:2:0
Bit depth : 10 bits
Bits/(Pixel*Frame) : 0.097
Stream size : 11.2 GiB (97%)
Language : English
Default : Yes
Forced : No

Audio
ID : 2
Format : AC-3
Format/Info : Audio Coding 3
Commercial name : Dolby Digital
Codec ID : A_AC3
Duration : 1 h 51 min
Bit rate mode : Constant
Bit rate : 384 kb/s
Channel(s) : 6 channels
Channel layout : L R C LFE Ls Rs
Sampling rate : 48.0 kHz
Frame rate : 31.250 FPS (1536 SPF)
Compression mode : Lossy
Stream size : 307 MiB (3%)
Language : English
Service kind : Complete Main
Default : Yes
Forced : No

Text #1
ID : 3
Format : UTF-8
Codec ID : S_TEXT/UTF8
Codec ID/Info : UTF-8 Plain Text
Duration : 1 h 45 min
Bit rate : 87 b/s
Count of elements : 1908
Stream size : 67.7 KiB (0%)
Title : SDH
Language : English
Default : No
Forced : No

Text #2
ID : 4
Format : UTF-8
Codec ID : S_TEXT/UTF8
Codec ID/Info : UTF-8 Plain Text
Duration : 1 h 45 min
Bit rate : 82 b/s
Count of elements : 1782
Stream size : 63.7 KiB (0%)
Language : English
Default : No
Forced : No

资源速度为零或资源敏感被和谐时,推荐使用qBittorrent等下载软件,有条件的推荐115更好的下载软件!

下载地址:

游客,如果您要查看本帖隐藏内容请回复

游客,如果您要查看本帖隐藏内容请回复

游客,如果您要查看本帖隐藏内容请回复

游客,如果您要查看本帖隐藏内容请回复

游客,如果您要查看本帖隐藏内容请回复

游客,如果您要查看本帖隐藏内容请回复

游客,如果您要查看本帖隐藏内容请回复

游客,如果您要查看本帖隐藏内容请回复



.


上一篇:准备好了没 (内封简繁中字) / Ready or Not (2019) 4k高清版本下载
下一篇:野兽派特工 / beast (2022) 4k高清版本下载
回复

使用道具 举报

56

主题

1545

帖子

4519

积分

4K家园VIP

Rank: 9Rank: 9Rank: 9

积分
4519
发表于 2022-5-10 14:51:34 | 显示全部楼层
路过的帮顶
回复 支持 1 反对 0

使用道具 举报

5

主题

1356

帖子

3924

积分

中级会员

Rank: 4

积分
3924
发表于 2022-5-10 15:51:36 | 显示全部楼层
感谢分享
回复 支持 反对

使用道具 举报

4

主题

1234

帖子

3734

积分

4K家园VIP

Rank: 9Rank: 9Rank: 9

积分
3734
发表于 2022-5-10 15:55:10 来自手机 | 显示全部楼层
额.....这个可以有
回复 支持 反对

使用道具 举报

1

主题

1303

帖子

3935

积分

4K家园VIP

Rank: 9Rank: 9Rank: 9

积分
3935
发表于 2022-5-10 16:12:01 | 显示全部楼层
支持支持再支持
回复 支持 反对

使用道具 举报

0

主题

2

帖子

13

积分

新手上路

Rank: 1

积分
13
发表于 2022-5-10 16:26:10 | 显示全部楼层
123333333333333312312312
回复 支持 反对

使用道具 举报

51

主题

1400

帖子

4032

积分

4K家园VIP

Rank: 9Rank: 9Rank: 9

积分
4032
发表于 2022-5-10 17:01:20 | 显示全部楼层
看起来好像不错的样子
回复 支持 反对

使用道具 举报

0

主题

3

帖子

19

积分

新手上路

Rank: 1

积分
19
发表于 2022-5-10 20:34:14 | 显示全部楼层
感谢分享
回复

使用道具 举报

0

主题

1

帖子

6

积分

新手上路

Rank: 1

积分
6
发表于 2022-5-11 01:23:56 来自手机 | 显示全部楼层
感谢
回复

使用道具 举报

0

主题

7

帖子

331

积分

4K家园VIP

Rank: 9Rank: 9Rank: 9

积分
331
发表于 2022-5-11 13:40:15 | 显示全部楼层
播放的时候颜色不对,下载的好几部电影都这样
回复 支持 反对

使用道具 举报

您需要登录后才可以回帖 登录 | 立即注册

本版积分规则

精彩图文
Archiver|手机版|TAG|Sitemap|新帖|专题|联系我们:邮箱: 4kjia.com@gmail.com   

4k家园   ©2019