鲁保罗变装皇后秀 (2021) / 第十四季全16集/4K高清下载

[复制链接]

203

主题

226

帖子

2233

积分

版主

Rank: 7Rank: 7Rank: 7

积分
2233
 楼主| 发表于 2022-5-11 10:22:27 | 显示全部楼层 |阅读模式
p2782308260_副本.jpg

◎译  名 鲁保罗变装皇后秀 第十四季
◎片  名 RuPaul's Drag Race Season 14
◎年  代 2022
◎产  地 美国
◎类  别 真人秀
◎语  言 英语
◎上映日期 2022-01-07 (美国)
◎IMDb评分  8.9/10 from 377 users
◎IMDb链接  https://www.imdb.com/title/tt11860588/
◎豆瓣评分 9.0/10 from 434 users
◎豆瓣链接 https://douban.com/subject/34981286/
◎集  数 16
◎片  长 60
◎主  演 鲁保罗 RuPaul
       米歇尔·维塞奇 Michelle Visage
       卡森·克雷斯利 Carson Kressley
       妮琪·米娜 Nicki Minaj
       Gigi Goode
       罗斯·马修斯 Ross Mathews


◎简  介

  与世界上最著名的扮装皇后RuPaul一起,参加橄榄球盛宴的终极竞赛RuPaul的Drag Race的主持人,导师和灵感。 RuPaul扮演双重角色,在所有评判和淘汰赛中都享有至高无上的地位,而RuPaul(男子)则帮助指导参赛者为每次挑战做准备。参赛者包括全美最残酷,最前沿,才华横溢且华丽绝伦的扮装皇后,他们都争夺土地(顶级头饰)的头衔(和头饰)。与我们的参赛者一起工作的是顶尖模特,设计师和美国偶像,他们合而为一。每周,通过对华丽,闪光和表演停止表演的考验和磨难,消灭了一名扮装皇后,直到到达了下一位美国超级巨星扮装皇后。


◎获奖情况

  第72届黄金时段艾美奖  (2020)
  真人秀类最佳竞赛类真人秀
  真人秀类最佳真人秀主持人 鲁保罗

  第46届美国人民选择奖  (2020)
  年度竞赛节目嘉宾 GigiGoode

Video
ID : 1
Format : HEVC
Format/Info : High Efficiency Video Coding
Format profile : Main@L5@High
Codec ID : V_MPEGH/ISO/HEVC
Duration : 1 h 1 min
Bit rate : 14.9 Mb/s
Width : 3 840 pixels
Height : 2 160 pixels
Display aspect ratio : 16:9
Frame rate mode : Constant
Frame rate : 29.970 (30000/1001) FPS
Color space : YUV
Chroma subsampling : 4:2:0
Bit depth : 8 bits
Bits/(Pixel*Frame) : 0.060
Stream size : 6.36 GiB (99%)
Language : English
Default : Yes
Forced : No
Color range : Limited
Color primaries : BT.709
Transfer characteristics : BT.709
Matrix coefficients : BT.709

Audio
ID : 2
Format : AAC LC
Format/Info : Advanced Audio Codec Low Complexity
Codec ID : A_AAC-2
Duration : 1 h 1 min
Bit rate : 126 kb/s
Channel(s) : 2 channels
Channel layout : L R
Sampling rate : 44.1 kHz
Frame rate : 43.066 FPS (1024 SPF)
Compression mode : Lossy
Stream size : 54.9 MiB (1%)
Language : English
Default : Yes
Forced : No

Text
ID : 3
Format : UTF-8
Codec ID : S_TEXT/UTF8
Codec ID/Info : UTF-8 Plain Text
Duration : 1 h 0 min
Bit rate : 118 b/s
Count of elements : 1638
Stream size : 53.0 KiB (0%)
Title : English [SDH]
Language : English
Default : No
Forced : No
PS:14季以前版本均为4K以下的高清版本

下载地址:

游客,如果您要查看本帖隐藏内容请回复



.

上一篇:荒野迷案 (内嵌简繁中字) (2022) /第一季全8集/ 4K高清版本下载
下一篇:素描簿 (简繁中字)/Sketchbook(2022)/第一季全6集/4K高清版本下载
回复

使用道具 举报

1

主题

1326

帖子

3806

积分

4K家园VIP

Rank: 9Rank: 9Rank: 9

积分
3806
发表于 2022-5-11 10:22:56 | 显示全部楼层
珍爱生命,果断回帖。
回复 支持 反对

使用道具 举报

56

主题

1501

帖子

4359

积分

4K家园VIP

Rank: 9Rank: 9Rank: 9

积分
4359
发表于 2022-5-11 10:33:42 | 显示全部楼层
多谢楼主分享
回复 支持 反对

使用道具 举报

2

主题

1442

帖子

4164

积分

中级会员

Rank: 4

积分
4164
发表于 2022-5-11 10:35:55 | 显示全部楼层
撸过
回复 支持 反对

使用道具 举报

2

主题

1579

帖子

4309

积分

4K家园VIP

Rank: 9Rank: 9Rank: 9

积分
4309
发表于 2022-5-11 10:53:02 | 显示全部楼层
没明白
回复 支持 反对

使用道具 举报

2

主题

1629

帖子

4487

积分

4K家园VIP

Rank: 9Rank: 9Rank: 9

积分
4487
发表于 2022-5-11 11:14:35 来自手机 | 显示全部楼层
锄禾日当午,发帖真辛苦。谁知坛中餐,帖帖皆辛苦!
回复 支持 反对

使用道具 举报

0

主题

17

帖子

69

积分

新手上路

Rank: 1

积分
69
发表于 2022-5-11 12:58:31 | 显示全部楼层
thx for sharing mate
回复 支持 反对

使用道具 举报

0

主题

8653

帖子

2万

积分

4K家园VIP

Rank: 9Rank: 9Rank: 9

积分
20150
发表于 2022-5-11 13:03:08 | 显示全部楼层
魯保羅變裝皇後秀4k
回复 支持 反对

使用道具 举报

0

主题

79

帖子

270

积分

4K家园VIP

Rank: 9Rank: 9Rank: 9

积分
270
发表于 2022-5-11 22:21:44 | 显示全部楼层
感谢分享
回复

使用道具 举报

0

主题

1

帖子

6

积分

新手上路

Rank: 1

积分
6
发表于 2022-7-25 00:17:09 | 显示全部楼层
666666666666666666666666
回复 支持 反对

使用道具 举报

您需要登录后才可以回帖 登录 | 立即注册

本版积分规则

精彩图文
Archiver|手机版|TAG|Sitemap|新帖|专题|联系我们:邮箱: 4kjia.com@gmail.com   

4k家园   ©2019