[4K电影] 野兽派特工 / beast (2022) 4k高清版本下载

[复制链接]

2325

主题

2474

帖子

1万

积分

超级版主

Rank: 8Rank: 8

积分
17918
 楼主| 发表于 2022-5-11 13:24:33 | 显示全部楼层 |阅读模式
本帖最后由 最爱4K哟 于 2022-5-11 13:46 编辑

QQ图片20220511130740_副本.png

◎译  名 野兽派特工
◎片  名 beast
◎年  代 2022
◎产  地 印度
◎类  别 动作 / 惊悚 / 犯罪
◎语  言 泰米尔语
◎上映日期 2022-04-13(印度)
◎IMDb评分  5.7/10 from 24688 users
◎IMDb链接  https://www.imdb.com/title/tt11301946/
◎豆瓣评分 0/10 from 0 users
◎豆瓣链接 https://movie.douban.com/subject/35859185/
◎片  长 155分钟
◎导  演 纳尔逊·迪利普库马尔 Nelson Dilipkumar
◎编  剧 纳尔逊·迪利普库马尔 Nelson Dilipkumar
◎演  员 维杰 Vijay
                   普嘉·海婅 Pooja Hegde
                   约吉·巴布 Yogi Babu
                   阿帕纳·达斯 Aparna Das



◎简  介


       金奈某个购物中心发生了一起持枪抢劫案,劫匪绑架商场内几百人当人质,惊动了政府,官员不得不介入其中,与劫匪举步维艰地谈判。而一名刚从国外执行完任务的特工竟误打误撞成了劫匪的“人质”之一,且看这位刀口舔血、特立独行的政府特工,如何把犯罪团伙折磨到痛哭流涕,悔不当初……
Video
ID                             : 1
Format                         : HEVC
Format/Info                    : High Efficiency Video Coding
Format profile                 : Main@L5.1@Main
Codec ID                       : V_MPEGH/ISO/HEVC
Duration                       : 2 h 37 min
Bit rate                       : 14.6 Mb/s
Width                          : 3 840 pixels
Height                         : 2 160 pixels
Display aspect ratio           : 16:9
Frame rate mode                : Constant
Frame rate                     : 24.000 FPS
Color space                    : YUV
Chroma subsampling             : 4:2:0
Bit depth                      : 8 bits
Bits/(Pixel*Frame)             : 0.073
Stream size                    : 16.0 GiB (95%)
Default                        : Yes
Forced                         : No

Audio
ID                             : 2
Format                         : E-AC-3 JOC
Format/Info                    : Enhanced AC-3 with Joint Object Coding
Commercial name                : Dolby Digital Plus with Dolby Atmos
Codec ID                       : A_EAC3
Duration                       : 2 h 37 min
Bit rate mode                  : Constant
Bit rate                       : 448 kb/s
Channel(s)                     : 6 channels
Channel layout                 : L R C LFE Ls Rs
Sampling rate                  : 48.0 kHz
Frame rate                     : 31.250 FPS (1536 SPF)
Compression mode               : Lossy
Stream size                    : 503 MiB (3%)
Language                       : Tamil
Service kind                   : Complete Main
Default                        : Yes
Forced                         : No
Complexity index               : 16
Number of dynamic objects      : 15
Bed channel count              : 1 channel
Bed channel configuration      : LFE

Text
ID                             : 3
Format                         : UTF-8
Codec ID                       : S_TEXT/UTF8
Codec ID/Info                  : UTF-8 Plain Text
Language                       : English
Default                        : Yes
Forced                         : No
资源速度为零或资源敏感被和谐时,推荐使用qBittorrent等下载软件,有条件的推荐115更好的下载软件!

下载地址:


游客,如果您要查看本帖隐藏内容请回复



.

上一篇:迷失之城 / The Lost City (2022) 4k高清版本下载
下一篇:康斯坦丁:神秘之所 (内封繁体中字) (2022) 4k高清版本下载
回复

使用道具 举报

2

主题

1689

帖子

4655

积分

4K家园VIP

Rank: 9Rank: 9Rank: 9

积分
4655
发表于 2022-5-11 13:24:38 | 显示全部楼层
多发些资源啊
回复 支持 反对

使用道具 举报

0

主题

2

帖子

9

积分

新手上路

Rank: 1

积分
9
发表于 2022-5-11 15:11:33 | 显示全部楼层
顶一下
回复

使用道具 举报

0

主题

472

帖子

2877

积分

注册会员

Rank: 2

积分
2877
发表于 2022-5-11 15:26:39 | 显示全部楼层
往往楼主分享
回复 支持 反对

使用道具 举报

0

主题

3

帖子

16

积分

新手上路

Rank: 1

积分
16
发表于 2022-5-11 15:57:04 | 显示全部楼层
顶一下                 
回复 支持 反对

使用道具 举报

3

主题

1791

帖子

4921

积分

中级会员

Rank: 4

积分
4921
发表于 2022-5-11 16:11:56 来自手机 | 显示全部楼层
试试看吧
回复 支持 反对

使用道具 举报

0

主题

67

帖子

1843

积分

注册会员

Rank: 2

积分
1843
发表于 2022-5-11 18:21:26 | 显示全部楼层
谢谢 楼主分享
回复 支持 反对

使用道具 举报

0

主题

2

帖子

15

积分

新手上路

Rank: 1

积分
15
发表于 2022-5-11 18:45:33 | 显示全部楼层
33333
回复

使用道具 举报

0

主题

3

帖子

12

积分

新手上路

Rank: 1

积分
12
发表于 2022-5-11 19:37:53 | 显示全部楼层
这个很好看的哦 ,推荐
回复 支持 反对

使用道具 举报

41

主题

1544

帖子

4408

积分

4K家园VIP

Rank: 9Rank: 9Rank: 9

积分
4408
发表于 2022-5-11 21:12:59 | 显示全部楼层
纯粹路过,没任何兴趣,仅仅是看在老用户份上回复一下
回复 支持 反对

使用道具 举报

您需要登录后才可以回帖 登录 | 立即注册

本版积分规则

精彩图文
Archiver|手机版|TAG|Sitemap|新帖|专题|联系我们:邮箱: 4kjia.com@gmail.com   

4k家园   ©2019