[4K电影] 康斯坦丁:神秘之所 (内封繁体中字) (2022) 4k高清版本下载

[复制链接]

1723

主题

1856

帖子

1万

积分

超级版主

Rank: 8Rank: 8

积分
14024
 楼主| 发表于 2022-5-11 16:50:48 | 显示全部楼层 |阅读模式
本帖最后由 最爱4K哟 于 2022-5-11 16:54 编辑

123308k46is00ki760gixj.png
◎译  名 康斯坦丁:神秘之所/DC Showcase – Constantine: House of Mystery/DC展台:康斯坦丁
◎片  名 Constantine: House of Mystery
◎年  代 2022
◎产  地 美国
◎类  别 动画
◎语  言 英语
◎IMDb评分  6.1/10 from 291 users
◎IMDb链接  https://www.imdb.com/title/tt18305072/
◎豆瓣评分 6.0/10 from 423 users
◎豆瓣链接 https://movie.douban.com/subject/35633926/
◎片  长 27分钟
◎导  演 马特·彼得斯 Matt Peters
◎编  剧 厄尼·阿尔特巴克 Ernie Altbacker
◎演  员 雷·蔡斯 Ray Chase
                  罗宾·阿特金·唐斯 Robin Atkin Downes
                  灰格·里芬 Grey Griffin



◎简  介

  这一年还将有DC Showcase–Constantine:House of Unserous的展示,这是一部最新的动画短片汇编,由一个涉及地狱骑士本人的故事作为锚定。”
Video
ID : 1
Format : HEVC
Format/Info : High Efficiency Video Coding
Format profile : Main 10@L5@High
HDR format : Dolby Vision, Version 1.0, dvhe.05.06, BL+RPU
Codec ID : V_MPEGH/ISO/HEVC
Duration : 1 h 16 min
Bit rate : 24.2 Mb/s
Width : 3 840 pixels
Height : 2 160 pixels
Display aspect ratio : 16:9
Frame rate mode : Constant
Frame rate : 23.976 (24000/1001) FPS
Color space : YUV
Chroma subsampling : 4:2:0
Bit depth : 10 bits
Bits/(Pixel*Frame) : 0.122
Stream size : 12.9 GiB (98%)
Language : English
Default : Yes
Forced : No

Audio
ID : 2
Format : AC-3
Format/Info : Audio Coding 3
Commercial name : Dolby Digital
Codec ID : A_AC3
Duration : 1 h 16 min
Bit rate mode : Constant
Bit rate : 384 kb/s
Channel(s) : 6 channels
Channel layout : L R C LFE Ls Rs
Sampling rate : 48.0 kHz
Frame rate : 31.250 FPS (1536 SPF)
Compression mode : Lossy
Stream size : 210 MiB (2%)
Language : English
Service kind : Complete Main
Default : Yes
Forced : No

Text #1
ID : 3
Format : UTF-8
Codec ID : S_TEXT/UTF8
Codec ID/Info : UTF-8 Plain Text
Duration : 1 h 15 min
Bit rate : 39 b/s
Count of elements : 816
Stream size : 21.8 KiB (0%)
Title : 中文(繁体)
Language : 中文
Default : No
Forced : No


Text #2
ID : 4
Format : UTF-8
Codec ID : S_TEXT/UTF8
Codec ID/Info : UTF-8 Plain Text
Duration : 1 h 15 min
Bit rate : 45 b/s
Count of elements : 687
Stream size : 25.3 KiB (0%)
Language : Danish
Default : No
Forced : No

Text #3
ID : 5
Format : UTF-8
Codec ID : S_TEXT/UTF8
Codec ID/Info : UTF-8 Plain Text
Duration : 1 h 15 min
Bit rate : 58 b/s
Count of elements : 870
Stream size : 32.1 KiB (0%)
Title : SDH
Language : German
Default : No
Forced : No

Text #4
ID : 6
Format : UTF-8
Codec ID : S_TEXT/UTF8
Codec ID/Info : UTF-8 Plain Text
Duration : 1 h 14 min
Bit rate : 49 b/s
Count of elements : 837
Stream size : 27.1 KiB (0%)
Language : English
Default : No
Forced : No

Text #5
ID : 7
Format : UTF-8
Codec ID : S_TEXT/UTF8
Codec ID/Info : UTF-8 Plain Text
Duration : 1 h 15 min
Bit rate : 57 b/s
Count of elements : 1088
Stream size : 32.0 KiB (0%)
Title : SDH
Language : English
Default : No
Forced : No

Text #6
ID : 8
Format : UTF-8
Codec ID : S_TEXT/UTF8
Codec ID/Info : UTF-8 Plain Text
Duration : 1 h 15 min
Bit rate : 50 b/s
Count of elements : 751
Stream size : 27.6 KiB (0%)
Title : Latin American
Language : Spanish
Default : No
Forced : No

Text #7
ID : 9
Format : UTF-8
Codec ID : S_TEXT/UTF8
Codec ID/Info : UTF-8 Plain Text
Duration : 1 h 15 min
Bit rate : 48 b/s
Count of elements : 724
Stream size : 26.8 KiB (0%)
Language : Finnish
Default : No
Forced : No

Text #8
ID : 10
Format : UTF-8
Codec ID : S_TEXT/UTF8
Codec ID/Info : UTF-8 Plain Text
Duration : 1 h 15 min
Bit rate : 59 b/s
Count of elements : 784
Stream size : 32.8 KiB (0%)
Language : French
Default : No
Forced : No

Text #9
ID : 11
Format : UTF-8
Codec ID : S_TEXT/UTF8
Codec ID/Info : UTF-8 Plain Text
Duration : 1 h 15 min
Bit rate : 75 b/s
Count of elements : 816
Stream size : 42.0 KiB (0%)
Language : Hebrew
Default : No
Forced : No

Text #10
ID : 12
Format : UTF-8
Codec ID : S_TEXT/UTF8
Codec ID/Info : UTF-8 Plain Text
Duration : 1 h 15 min
Bit rate : 51 b/s
Count of elements : 746
Stream size : 28.6 KiB (0%)
Language : Dutch
Default : No
Forced : No

Text #11
ID : 13
Format : UTF-8
Codec ID : S_TEXT/UTF8
Codec ID/Info : UTF-8 Plain Text
Duration : 1 h 15 min
Bit rate : 44 b/s
Count of elements : 698
Stream size : 24.5 KiB (0%)
Language : Norwegian
Default : No
Forced : No

Text #12
ID : 14
Format : UTF-8
Codec ID : S_TEXT/UTF8
Codec ID/Info : UTF-8 Plain Text
Duration : 1 h 15 min
Bit rate : 45 b/s
Count of elements : 720
Stream size : 25.1 KiB (0%)
Title : Brazilian
Language : Portuguese
Default : No
Forced : No

Text #13
ID : 15
Format : UTF-8
Codec ID : S_TEXT/UTF8
Codec ID/Info : UTF-8 Plain Text
Duration : 1 h 15 min
Bit rate : 46 b/s
Count of elements : 712
Stream size : 25.9 KiB (0%)
Language : Swedish
Default : No
Forced : No

Menu
00:00:00.000 : en:Chapter 1
00:04:40.572 : en:Chapter 2
00:09:58.181 : en:Chapter 3
00:15:03.278 : en:Chapter 4
00:18:54.509 : en:Chapter 5
00:24:48.279 : en:Chapter 6
00:27:38.533 : en:Chapter 7
00:32:20.774 : en:Chapter 8
00:37:06.226 : en:Chapter 9
00:44:52.400 : en:Chapter 10
00:49:50.448 : en:Chapter 11
00:53:39.844 : en:Chapter 12
00:58:18.540 : en:Chapter 13
01:02:25.829 : en:Chapter 14
01:07:28.214 : en:Chapter 15
01:12:00.862 : en:Chapter 16

资源速度为零或资源敏感被和谐时,推荐使用qBittorrent等下载软件,有条件的推荐115更好的下载软件!
下载地址:

游客,如果您要查看本帖隐藏内容请回复
游客,如果您要查看本帖隐藏内容请回复

游客,如果您要查看本帖隐藏内容请回复

游客,如果您要查看本帖隐藏内容请回复



相关其他版本:康斯坦丁:神秘之所 (2022) 4k高清版本下载


.




上一篇:野兽派特工 / beast (2022) 4k高清版本下载
下一篇:神奇动物3:邓布利多之谜 (英语中字) (2022) 1080P高清版本下载
回复

使用道具 举报

0

主题

1724

帖子

4686

积分

4K家园VIP

Rank: 9Rank: 9Rank: 9

积分
4686
发表于 2022-5-11 16:50:55 | 显示全部楼层
高手云集 果断围观
回复 支持 反对

使用道具 举报

52

主题

1472

帖子

4246

积分

4K家园VIP

Rank: 9Rank: 9Rank: 9

积分
4246
发表于 2022-5-11 17:45:30 | 显示全部楼层
支持支持再支持
回复 支持 反对

使用道具 举报

0

主题

2

帖子

9

积分

新手上路

Rank: 1

积分
9
发表于 2022-5-11 21:07:50 | 显示全部楼层
感谢楼主分享,,,,,,,,,,,,,,,,
回复 支持 反对

使用道具 举报

0

主题

3

帖子

42

积分

新手上路

Rank: 1

积分
42
发表于 2022-5-11 21:24:49 | 显示全部楼层
谢谢楼主分享,找了很久了。
回复 支持 反对

使用道具 举报

0

主题

71

帖子

233

积分

4K家园VIP

Rank: 9Rank: 9Rank: 9

积分
233
发表于 2022-5-11 22:20:36 | 显示全部楼层

谢谢楼主分享
回复 支持 反对

使用道具 举报

0

主题

2

帖子

9

积分

新手上路

Rank: 1

积分
9
发表于 2022-5-11 23:18:00 来自手机 | 显示全部楼层
感谢
回复

使用道具 举报

0

主题

2

帖子

9

积分

新手上路

Rank: 1

积分
9
发表于 2022-5-11 23:18:11 来自手机 | 显示全部楼层
寂寞了
回复

使用道具 举报

0

主题

1

帖子

9

积分

4K家园VIP

Rank: 9Rank: 9Rank: 9

积分
9
发表于 2022-5-12 01:20:09 | 显示全部楼层
1111111111111111111111111111111
回复 支持 反对

使用道具 举报

0

主题

8

帖子

40

积分

新手上路

Rank: 1

积分
40
发表于 2022-5-12 08:33:01 | 显示全部楼层

多发些资源啊
回复 支持 反对

使用道具 举报

您需要登录后才可以回帖 登录 | 立即注册

本版积分规则

精彩图文
Archiver|手机版|TAG|Sitemap|新帖|专题|联系我们:邮箱: 4kjia.com@gmail.com   

4k家园   ©2019