[4K电影] 神奇动物3:邓布利多之谜 (英语中字) (2022) 1080P高清版本下载

  [复制链接]

1735

主题

1868

帖子

1万

积分

超级版主

Rank: 8Rank: 8

积分
14105
 楼主| 发表于 2022-5-11 18:25:07 | 显示全部楼层 |阅读模式
本帖最后由 最爱4K哟 于 2022-5-11 18:39 编辑

p2869564489_副本.jpg

◎译  名 神奇动物:邓布利多之谜/怪兽与邓不利多的秘密(港/台)/神奇动物在哪里3:邓布利多之谜/神奇生物在哪里3
◎片  名 Fantastic Beasts: The Secrets of Dumbledore
◎年  代 2022
◎产  地 英国/美国
◎类  别 奇幻/冒险
◎语  言 英语/德语
◎上映日期 2022-04-08(英国/中国大陆)/2022-04-15(美国)
◎豆瓣评分 6.1/10 from 106122 users
◎豆瓣链接 https://douban.com/subject/26147418/
◎片  长 142分钟
◎导  演 大卫·叶茨 David Yates
◎编  剧 J. K. 罗琳 J. K. Rowling / 史蒂夫·克洛夫斯 Steve Kloves
◎主  演 埃迪·雷德梅恩 Eddie Redmayne
       裘德·洛 Jude Law
       麦斯·米科尔森 Mads Mikkelsen
       丹·福勒 Dan Fogler
       艾莉森·萨多尔 Alison Sudol
       凯瑟琳·沃特斯顿 Katherine Waterston
       埃兹拉·米勒 Ezra Miller
       卡勒姆·特纳 Callum Turner
       杰西卡·威廉姆斯 Jessica Williams
       理查德·柯伊尔 Richard Coyle
       波佩·科比-特曲 Poppy Corby-Tuech
       维多利亚·耶茨 Victoria Yeates
       威廉·纳迪兰 William Nadylam
       奥利弗·马苏奇 Oliver Masucci
       瓦莱丽·帕赫纳 Valerie Pachner
       亚历山大·库兹涅佐夫 Aleksandr Kuznetsov
       拉莫娜·库泽-莉比诺 Ramona Kunze-Libnow
       马丽娅·费尔南达·康基多 Maria Fernanda Cândido
       戴夫·王 Dave Wong
       维尔夫·斯科尔丁 Wilf Scolding
       卢卡斯·英格兰德 Lucas Englander
       菲奥娜·格拉斯科特 Fiona Glascott
       马提亚斯·布伦纳 Matthias Brenner
       彼得·西蒙尼舍克 Peter Simonischek
       雅基·波特斯万 Jacqui Boatswain
       赫柏·贝尔德索尔 Hebe Beardsall
       曼努埃尔·克莱因 Manuel Klein
       凯文·格思里 Kevin Guthrie

◎简  介


  阿不思·邓布利多教授(裘德·洛 饰)意识到强大的黑巫师盖勒特·格林德沃(麦斯·米科尔森 饰)正试图夺取魔法世界的控制权。邓布利多了解仅凭他一人之力,将无法阻止格林德沃,于是他委托魔法动物学家纽特·斯卡曼德(埃迪·雷德梅恩 饰)带领一支精良的团队——成员包括男巫、女巫及一位勇敢的麻瓜面包师,来共同执行这项危险任务。一路上他们会遇到各式各样的神奇动物,既有老朋友,也有前所未见的神秘生物;同时他们也随时会与格林德沃不断壮大的追随者发生冲突。这次行动的风险是如此之高……邓布利多还能袖手旁观多久?

Video
ID                             : 1
Format                         : HEVC
Format/Info                    : High Efficiency Video Coding
Format profile                 : Main@L6.2@Main
Codec ID                       : hev1
Codec ID/Info                  : High Efficiency Video Coding
Duration                       : 2 h 22 min
Bit rate                       : 2 092 kb/s
Width                          : 1 920 pixels
Height                         : 1 080 pixels
Display aspect ratio           : 16:9
Frame rate mode                : Constant
Frame rate                     : 23.976 (24000/1001) FPS
Standard                       : Component
Color space                    : YUV
Chroma subsampling             : 4:2:0
Bit depth                      : 8 bits
Bits/(Pixel*Frame)             : 0.042
Stream size                    : 2.08 GiB (91%)
Color range                    : Limited
Codec configuration box        : hvcC

Audio
ID                             : 2
Format                         : AAC LC
Format/Info                    : Advanced Audio Codec Low Complexity
Codec ID                       : mp4a-40-2
Duration                       : 2 h 22 min
Source duration                : 2 h 22 min
Bit rate mode                  : Constant
Bit rate                       : 192 kb/s
Channel(s)                     : 2 channels
Channel layout                 : L R
Sampling rate                  : 48.0 kHz
Frame rate                     : 46.875 FPS (1024 SPF)
Compression mode               : Lossy
Stream size                    : 196 MiB (8%)
Source stream size             : 196 MiB (8%)
Default                        : Yes
Alternate group                : 1

资源速度为零或资源敏感被和谐时,推荐使用qBittorrent等下载软件,有条件的推荐115更好的下载软件!


下载地址:

游客,如果您要查看本帖隐藏内容请回复




.

上一篇:康斯坦丁:神秘之所 (内封繁体中字) (2022) 4k高清版本下载
下一篇:双重危机(简繁中字)/ Double Jeopardy (1999) 4k高清版本下载
回复

使用道具 举报

3

主题

1412

帖子

4062

积分

4K家园VIP

Rank: 9Rank: 9Rank: 9

积分
4062
发表于 2022-5-11 18:25:13 | 显示全部楼层
一直在看
回复 支持 反对

使用道具 举报

0

主题

2

帖子

13

积分

新手上路

Rank: 1

积分
13
发表于 2022-5-11 19:13:12 | 显示全部楼层
想看看
回复

使用道具 举报

0

主题

3

帖子

12

积分

新手上路

Rank: 1

积分
12
发表于 2022-5-11 19:37:34 | 显示全部楼层
这个很好看的哦 ,推荐
回复 支持 反对

使用道具 举报

0

主题

14

帖子

193

积分

新手上路

Rank: 1

积分
193
发表于 2022-5-11 19:45:43 | 显示全部楼层
好快好快
回复

使用道具 举报

0

主题

2

帖子

13

积分

新手上路

Rank: 1

积分
13
发表于 2022-5-11 20:02:14 | 显示全部楼层
jhgvgjmnnn
回复 支持 反对

使用道具 举报

0

主题

2

帖子

12

积分

新手上路

Rank: 1

积分
12
发表于 2022-5-11 20:53:48 | 显示全部楼层

这个很好看的哦
回复 支持 反对

使用道具 举报

0

主题

10

帖子

135

积分

新手上路

Rank: 1

积分
135
发表于 2022-5-11 21:58:39 | 显示全部楼层
66666666666666
回复 支持 反对

使用道具 举报

0

主题

71

帖子

233

积分

4K家园VIP

Rank: 9Rank: 9Rank: 9

积分
233
发表于 2022-5-11 22:19:41 | 显示全部楼层
感谢分享
回复

使用道具 举报

0

主题

12

帖子

46

积分

新手上路

Rank: 1

积分
46
发表于 2022-5-11 22:34:57 | 显示全部楼层
感谢分享,等很久了
回复 支持 反对

使用道具 举报

您需要登录后才可以回帖 登录 | 立即注册

本版积分规则

精彩图文
Archiver|手机版|TAG|Sitemap|新帖|专题|联系我们:邮箱: 4kjia.com@gmail.com   

4k家园   ©2019