[4K电影] 双重危机(简繁中字)/ Double Jeopardy (1999) 4k高清版本下载

[复制链接]

1723

主题

1856

帖子

1万

积分

超级版主

Rank: 8Rank: 8

积分
14024
 楼主| 发表于 2022-5-12 11:49:06 | 显示全部楼层 |阅读模式

QQ图片20220512114725_副本.png

◎译  名 双重危机 / 致命追缉令 / 亡命追凶 / 双重阴谋 / 双重间谍
◎片  名 Double Jeopardy
◎年  代 1999
◎产  地 美国 / 德国 / 加拿大
◎类  别 剧情 / 悬疑 / 惊悚 / 犯罪
◎语  言 英语
◎上映日期 1999-09-21
◎IMDb评分  6.5/10 from 85463 users
◎IMDb链接  https://www.imdb.com/title/tt0150377/
◎豆瓣评分 7.2/10 from 6986 users
◎豆瓣链接 https://movie.douban.com/subject/1292676/
◎片  长 105分钟
◎导  演 布鲁斯·贝尔斯福德 Bruce Beresford
◎编  剧 大卫·韦斯伯格 David Weisberg / 道格拉斯·库克 Douglas Cook / 张策 Ce Zhang
◎演  员 汤米·李·琼斯 Tommy Lee Jones
       艾什莉·贾德 Ashley Judd
       杰伊·布拉泽奥 Jay Brazeau
       布鲁斯·格林伍德 Bruce Greenwood
       约翰·麦克拉伦 John Maclaren
       安娜贝丝·吉什 Annabeth Gish
       布伦南·埃利奥特 Brennan Elliott
       迈克尔·加斯顿 Michael Gaston
       吉莲·芭伯 Gillian Barber
       David Jacox David Jacox
       贝齐·布兰特利 Betsy Brantley (id:1074472)
       罗马·玛菲娅 Roma Maffia
       达文尼亚·麦克法登 Davenia McFadden
       加布里埃尔·罗斯 Gabrielle Rose
       丹尼尔·莱派恩 Daniel Lapaine
       玛丽亚·埃雷拉 Maria Herrera
       巴布斯丘拉 Babs Chula
       恩卡·奥库玛 Enuka Okuma
       David Fredericks David Fredericks
       安娜·哈根 Anna Hagan
       富尔·切切里 Fulvio Cecere
       特雷西·维拉尔 Tracy Vilar
       Addison Ridge Addison Ridge
       因格里德·托伦斯 Ingrid Torrance
       罗杰·R.克劳斯 Roger R. Cross
       基冈·康纳·特雷西 Keegan Connor Tracy
       Dave Hager Dave Hager
       Austin B. Church Austin B. Church
       米凯尔·珊农·詹金斯 Mykel Shannon Jenkins
       Michelle Stafford Michelle Stafford
       Lance Spellerberg Lance Spellerberg
       乔治·图利亚托斯 George Touliatos
       Brent Woolsey Brent Woolsey
       斯宾塞·崔特·克拉克 Spencer Treat Clark
       Tamer Riad Tamer Riad
       Nicolas Roye Nicolas Roye
       马克·华纳 Mark Warner
       萨拉·芬兰 Sarah Finn
       德博拉·阿奎拉 Deborah Aquila
       Andrew Neskoromny Andrew Neskoromny
       Elizabeth Wilcox Elizabeth Wilcox
       Linda M. Bass Linda M. Bass
       Ashlee Petersen Ashlee Petersen
       Norma Hill-Patton Norma Hill-Patton
       西德妮·科内尔 Cydney Cornell
       约翰·布雷克 John Blake
       Charles Porlier Charles Porlier
       布拉德·库恩 Brad Kuehn


◎简  介


  莉比(艾什莉·贾德 Ashley Judd 饰)和丈夫尼克(布鲁斯·格林伍德 Bruce Greenwood 饰)之间的感情十分要好,两人共同养育乖巧可爱的儿子马蒂(本杰明·韦弗 Benjamin Weaver 饰),幸福生活堪称典范。可是,在忽然之间,尼克神秘失踪留下大量血迹,莉比则沦为嫌犯最终锒铛入狱。莉比将马蒂托付给了好友安吉(安娜贝丝·吉什 Annabeth Gish 饰),自己则在狱友玛格丽特(罗马·玛菲娅 Roma Maffia 饰)和伊芙琳(达文尼亚·麦克法登 Davenia McFadden 饰)的帮助下为了洗清罪名而做着不断的努力。
一晃眼六年过去,塔维斯警官(汤米·李·琼斯 Tommy Lee Jones 饰)成为了获得了假释的莉比的监护人,而此时的莉比发现,尼克不仅没有死亡,甚至改头换面带着儿子和安吉过着隐姓埋名的生活。经历了双...

Video
ID : 1
Format : HEVC
Format/Info : High Efficiency Video Coding
Format profile : Main 10@L5@High
HDR format : Dolby Vision, Version 1.0, dvhe.05.06, BL+RPU
Codec ID : dvhe
Codec ID/Info : High Efficiency Video Coding with Dolby Vision
Duration : 1 h 45 min
Bit rate : 24.9 Mb/s
Width : 3 840 pixels
Height : 1 600 pixels
Display aspect ratio : 2.40:1
Frame rate mode : Constant
Frame rate : 23.976 (24000/1001) FPS
Color space : YUV
Chroma subsampling : 4:2:0
Bit depth : 10 bits
Bits/(Pixel*Frame) : 0.169
Stream size : 18.3 GiB (98%)
Default : Yes
Alternate group : 1
Encoded date : UTC 2022-05-11 08:07:15
Tagged date : UTC 2022-05-11 08:10:36
Codec configuration box : hvcC+dvcC

Audio
ID : 2
Format : AC-3
Format/Info : Audio Coding 3
Commercial name : Dolby Digital
Codec ID : ac-3
Duration : 1 h 45 min
Bit rate mode : Constant
Bit rate : 384 kb/s
Maximum bit rate : 406 kb/s
Channel(s) : 6 channels
Channel layout : L R C LFE Ls Rs
Sampling rate : 48.0 kHz
Frame rate : 31.250 FPS (1536 SPF)
Compression mode : Lossy
Stream size : 289 MiB (2%)
Title : English
Language : English
Service kind : Complete Main
Default : Yes
Alternate group : 1
Tagged date : UTC 2022-05-11 08:10:36

Text #1
ID : 3
Format : Timed Text
Codec ID : tx3g
Duration : 1 h 40 min
Bit rate mode : Variable
Bit rate : 67 b/s
Stream size : 48.8 KiB (0%)
Title : English
Language : English
Forced : No
Encoded date : UTC 2022-05-11 08:10:35
Tagged date : UTC 2022-05-11 08:10:36

Text #2
ID : 4
Format : Timed Text
Codec ID : tx3g
Duration : 1 h 39 min
Bit rate mode : Variable
Bit rate : 66 b/s
Stream size : 47.9 KiB (0%)
Title : Arabic
Language : Arabic
Forced : No
Encoded date : UTC 2022-05-11 08:10:35
Tagged date : UTC 2022-05-11 08:10:36

Text #3
ID : 5
Format : Timed Text
Codec ID : tx3g
Duration : 1 h 40 min
Bit rate mode : Variable
Bit rate : 67 b/s
Stream size : 49.1 KiB (0%)
Title : Bulgarian
Language : Bulgarian
Forced : No
Encoded date : UTC 2022-05-11 08:10:35
Tagged date : UTC 2022-05-11 08:10:36

Text #4
ID : 6
Format : Timed Text
Codec ID : tx3g
Duration : 1 h 39 min
Bit rate mode : Variable
Bit rate : 40 b/s
Stream size : 29.2 KiB (0%)
Title : 中文(简体)
Language : Chinese
Forced : No
Encoded date : UTC 2022-05-11 08:10:35
Tagged date : UTC 2022-05-11 08:10:36


Text #5
ID : 7
Format : Timed Text
Codec ID : tx3g
Duration : 1 h 39 min
Bit rate mode : Variable
Bit rate : 36 b/s
Stream size : 26.4 KiB (0%)
Title : 中文(繁体)
Language : Chinese
Forced : No
Encoded date : UTC 2022-05-11 08:10:35
Tagged date : UTC 2022-05-11 08:10:36


Text #6
ID : 8
Format : Timed Text
Codec ID : tx3g
Duration : 1 h 39 min
Bit rate mode : Variable
Bit rate : 41 b/s
Stream size : 29.7 KiB (0%)
Title : Danish
Language : Danish
Forced : No
Encoded date : UTC 2022-05-11 08:10:35
Tagged date : UTC 2022-05-11 08:10:36

Text #7
ID : 9
Format : Timed Text
Codec ID : tx3g
Duration : 1 h 45 min
Bit rate mode : Variable
Bit rate : 36 b/s
Stream size : 27.8 KiB (0%)
Title : Dutch
Language : Dutch
Forced : No
Encoded date : UTC 2022-05-11 08:10:35
Tagged date : UTC 2022-05-11 08:10:36

Text #8
ID : 10
Format : Timed Text
Codec ID : tx3g
Duration : 1 h 39 min
Bit rate mode : Variable
Bit rate : 44 b/s
Stream size : 31.9 KiB (0%)
Title : Finnish
Language : Finnish
Forced : No
Encoded date : UTC 2022-05-11 08:10:35
Tagged date : UTC 2022-05-11 08:10:36

Text #9
ID : 11
Format : Timed Text
Codec ID : tx3g
Duration : 1 h 39 min
Bit rate mode : Variable
Bit rate : 45 b/s
Stream size : 33.0 KiB (0%)
Title : French
Language : French
Forced : No
Encoded date : UTC 2022-05-11 08:10:35
Tagged date : UTC 2022-05-11 08:10:36

Text #10
ID : 12
Format : Timed Text
Codec ID : tx3g
Duration : 1 h 39 min
Bit rate mode : Variable
Bit rate : 46 b/s
Stream size : 33.7 KiB (0%)
Title : German
Language : German
Forced : No
Encoded date : UTC 2022-05-11 08:10:36
Tagged date : UTC 2022-05-11 08:10:36

Text #11
ID : 13
Format : Timed Text
Codec ID : tx3g
Duration : 1 h 39 min
Bit rate mode : Variable
Bit rate : 54 b/s
Stream size : 39.8 KiB (0%)
Title : Hebrew
Language : Hebrew
Forced : No
Encoded date : UTC 2022-05-11 08:10:36
Tagged date : UTC 2022-05-11 08:10:36

Text #12
ID : 14
Format : Timed Text
Codec ID : tx3g
Duration : 1 h 45 min
Bit rate mode : Variable
Bit rate : 52 b/s
Stream size : 40.3 KiB (0%)
Title : Italian
Language : Italian
Forced : No
Encoded date : UTC 2022-05-11 08:10:36
Tagged date : UTC 2022-05-11 08:10:36

Text #13
ID : 15
Format : Timed Text
Codec ID : tx3g
Duration : 1 h 39 min
Bit rate mode : Variable
Bit rate : 62 b/s
Stream size : 45.3 KiB (0%)
Title : Latvian
Language : Latvian
Forced : No
Encoded date : UTC 2022-05-11 08:10:36
Tagged date : UTC 2022-05-11 08:10:36

Text #14
ID : 16
Format : Timed Text
Codec ID : tx3g
Duration : 1 h 39 min
Bit rate mode : Variable
Bit rate : 39 b/s
Stream size : 28.4 KiB (0%)
Title : Norwegian
Language : Norwegian
Forced : No
Encoded date : UTC 2022-05-11 08:10:36
Tagged date : UTC 2022-05-11 08:10:36

Text #15
ID : 17
Format : Timed Text
Codec ID : tx3g
Duration : 1 h 39 min
Bit rate mode : Variable
Bit rate : 55 b/s
Stream size : 40.5 KiB (0%)
Title : Polish
Language : Polish
Forced : No
Encoded date : UTC 2022-05-11 08:10:36
Tagged date : UTC 2022-05-11 08:10:36

Text #16
ID : 18
Format : Timed Text
Codec ID : tx3g
Duration : 1 h 39 min
Bit rate mode : Variable
Bit rate : 45 b/s
Stream size : 33.0 KiB (0%)
Title : Portuguese
Language : Portuguese
Forced : No
Encoded date : UTC 2022-05-11 08:10:36
Tagged date : UTC 2022-05-11 08:10:36

Text #17
ID : 19
Format : Timed Text
Codec ID : tx3g
Duration : 1 h 39 min
Bit rate mode : Variable
Bit rate : 48 b/s
Stream size : 35.0 KiB (0%)
Title : Portuguese
Language : Portuguese
Forced : No
Encoded date : UTC 2022-05-11 08:10:36
Tagged date : UTC 2022-05-11 08:10:36

Text #18
ID : 20
Format : Timed Text
Codec ID : tx3g
Duration : 1 h 45 min
Bit rate mode : Variable
Bit rate : 84 b/s
Stream size : 64.5 KiB (0%)
Title : Russian
Language : Russian
Forced : No
Encoded date : UTC 2022-05-11 08:10:36
Tagged date : UTC 2022-05-11 08:10:36

Text #19
ID : 21
Format : Timed Text
Codec ID : tx3g
Duration : 1 h 39 min
Bit rate mode : Variable
Bit rate : 54 b/s
Stream size : 39.8 KiB (0%)
Title : Spanish
Language : Spanish
Forced : No
Encoded date : UTC 2022-05-11 08:10:36
Tagged date : UTC 2022-05-11 08:10:36

Text #20
ID : 22
Format : Timed Text
Codec ID : tx3g
Duration : 1 h 39 min
Bit rate mode : Variable
Bit rate : 43 b/s
Stream size : 31.1 KiB (0%)
Title : Spanish-EU
Language : Spanish
Forced : No
Encoded date : UTC 2022-05-11 08:10:36
Tagged date : UTC 2022-05-11 08:10:36

Text #21
ID : 23
Format : Timed Text
Codec ID : tx3g
Duration : 1 h 39 min
Bit rate mode : Variable
Bit rate : 39 b/s
Stream size : 28.8 KiB (0%)
Title : Swedish
Language : Swedish
Forced : No
Encoded date : UTC 2022-05-11 08:10:36
Tagged date : UTC 2022-05-11 08:10:36

Text #22
ID : 24
Format : Timed Text
Codec ID : tx3g
Duration : 1 h 45 min
Bit rate mode : Variable
Bit rate : 55 b/s
Stream size : 42.4 KiB (0%)
Title : Turkish
Language : Turkish
Forced : No
Encoded date : UTC 2022-05-11 08:10:36
Tagged date : UTC 2022-05-11 08:10:36


资源速度为零或资源敏感被和谐时,推荐使用qBittorrent等下载软件,有条件的推荐115更好的下载软件!

下载地址:


游客,如果您要查看本帖隐藏内容请回复

游客,如果您要查看本帖隐藏内容请回复

游客,如果您要查看本帖隐藏内容请回复






上一篇:神奇动物3:邓布利多之谜 (英语中字) (2022) 1080P高清版本下载
下一篇:北欧人(附字幕) / The Northman (2022) 4k高清版本下载
回复

使用道具 举报

195

主题

1591

帖子

4375

积分

4K家园VIP

Rank: 9Rank: 9Rank: 9

积分
4375
发表于 2022-5-12 11:49:11 | 显示全部楼层
楼主这资源不错,我收藏了
回复 支持 反对

使用道具 举报

1

主题

1316

帖子

3968

积分

4K家园VIP

Rank: 9Rank: 9Rank: 9

积分
3968
发表于 2022-5-12 12:45:53 | 显示全部楼层
出4K版啦,下个看看
回复 支持 反对

使用道具 举报

42

主题

1514

帖子

4354

积分

4K家园VIP

Rank: 9Rank: 9Rank: 9

积分
4354
发表于 2022-5-12 12:52:42 | 显示全部楼层
1v1飘过
回复 支持 反对

使用道具 举报

3

主题

1368

帖子

4122

积分

4K家园VIP

Rank: 9Rank: 9Rank: 9

积分
4122
发表于 2022-5-12 13:26:34 来自手机 | 显示全部楼层
我擦!我要沙发!
回复 支持 反对

使用道具 举报

3

主题

1338

帖子

4032

积分

4K家园VIP

Rank: 9Rank: 9Rank: 9

积分
4032
发表于 2022-5-12 18:10:29 | 显示全部楼层
支持一下楼主,顶起来
回复 支持 反对

使用道具 举报

0

主题

1

帖子

12

积分

新手上路

Rank: 1

积分
12
发表于 7 天前 | 显示全部楼层
新手报到,请多多指教
回复 支持 反对

使用道具 举报

您需要登录后才可以回帖 登录 | 立即注册

本版积分规则

精彩图文
Archiver|手机版|TAG|Sitemap|新帖|专题|联系我们:邮箱: 4kjia.com@gmail.com   

4k家园   ©2019