素描簿 (简繁中字)/Sketchbook(2022)/第一季全6集/4K高清版本下载

[复制链接]

203

主题

226

帖子

2233

积分

版主

Rank: 7Rank: 7Rank: 7

积分
2233
 楼主| 发表于 2022-5-12 12:27:26 | 显示全部楼层 |阅读模式

p2872279176_副本.jpg

◎译  名 素描簿
◎片  名 Sketchbook
◎年  代 2022
◎产  地 美国
◎类  别 纪录片
◎语  言 英语
◎上映日期 2022-04-27(美国)
◎IMDb评分  7.9/10 from 44 users
◎IMDb链接  https://www.imdb.com/title/tt18779204/
◎豆瓣评分 0/10 from 0 users
◎豆瓣链接 https://douban.com/subject/35805547/
◎集  数 6
◎主  演 埃里克·古德伯格 Eric Goldberg
       马克·亨 Mark Henn
                   金·晶 Jin Kim
                   萨曼莎·维尔福特 Samantha Vilfort



◎简  介


         这部纪录片系列把我们带到书桌上,走进天才艺术家和动画师的生活。每一集都集中在一位艺术家身上,教我们如何从迪士尼动画工作室的电影中画出一个标志性人物。
Video
ID : 1
Format : HEVC
Format/Info : High Efficiency Video Coding
Format profile : Main 10@L5@High
HDR format : Dolby Vision, Version 1.0, dvhe.05.06, BL+RPU
Codec ID : dvhe
Codec ID/Info : High Efficiency Video Coding with Dolby Vision
Duration : 22 min 7 s
Bit rate : 16.4 Mb/s
Width : 3 840 pixels
Height : 2 160 pixels
Display aspect ratio : 16:9
Frame rate mode : Constant
Frame rate : 23.976 (24000/1001) FPS
Color space : YUV
Chroma subsampling : 4:2:0
Bit depth : 10 bits
Bits/(Pixel*Frame) : 0.082
Stream size : 2.53 GiB (98%)
Default : Yes
Alternate group : 1
Encoded date : UTC 2022-05-11 21:24:30
Tagged date : UTC 2022-05-11 21:24:42
Color range : Full
Codec configuration box : hvcC+dvcC

Audio
ID : 2
Format : E-AC-3
Format/Info : Enhanced AC-3
Commercial name : Dolby Digital Plus
Codec ID : ec-3
Duration : 22 min 7 s
Bit rate mode : Constant
Bit rate : 256 kb/s
Maximum bit rate : 270 kb/s
Channel(s) : 6 channels
Channel layout : L R C LFE Ls Rs
Sampling rate : 48.0 kHz
Frame rate : 31.250 FPS (1536 SPF)
Compression mode : Lossy
Stream size : 40.5 MiB (2%)
Title : English
Language : English
Service kind : Complete Main
Default : Yes
Alternate group : 1
Tagged date : UTC 2022-05-11 21:24:42

Text #1
ID : 3
Format : Timed Text
Codec ID : tx3g
Duration : 21 min 51 s
Bit rate mode : Variable
Bit rate : 108 b/s
Stream size : 17.3 KiB (0%)
Title : English
Language : English
Forced : No
Encoded date : UTC 2022-05-11 21:24:41
Tagged date : UTC 2022-05-11 21:24:42

Text #2
ID : 4
Format : Timed Text
Codec ID : tx3g
Duration : 21 min 51 s
Bit rate mode : Variable
Bit rate : 69 b/s
Stream size : 11.1 KiB (0%)
Title : 中文(粤语)
Language : Chinese
Forced : No
Encoded date : UTC 2022-05-11 21:24:41
Tagged date : UTC 2022-05-11 21:24:42

Text #3
ID : 5
Format : Timed Text
Codec ID : tx3g
Duration : 21 min 51 s
Bit rate mode : Variable
Bit rate : 69 b/s
Stream size : 11.1 KiB (0%)
Title : 中文(简体)
Language : 中文
Forced : No
Encoded date : UTC 2022-05-11 21:24:41
Tagged date : UTC 2022-05-11 21:24:42

Text #4
ID : 6
Format : Timed Text
Codec ID : tx3g
Duration : 21 min 51 s
Bit rate mode : Variable
Bit rate : 69 b/s
Stream size : 11.0 KiB (0%)
Title : 中文(繁体)
Language : 中文
Forced : No
Encoded date : UTC 2022-05-11 21:24:41
Tagged date : UTC 2022-05-11 21:24:42


Text #5
ID : 7
Format : Timed Text
Codec ID : tx3g
Duration : 21 min 51 s
Bit rate mode : Variable
Bit rate : 93 b/s
Stream size : 14.9 KiB (0%)
Title : Czech
Language : Czech
Forced : No
Encoded date : UTC 2022-05-11 21:24:41
Tagged date : UTC 2022-05-11 21:24:42

Text #6
ID : 8
Format : Timed Text
Codec ID : tx3g
Duration : 21 min 51 s
Bit rate mode : Variable
Bit rate : 100 b/s
Stream size : 16.0 KiB (0%)
Title : Danish
Language : Danish
Forced : No
Encoded date : UTC 2022-05-11 21:24:41
Tagged date : UTC 2022-05-11 21:24:42

Text #7
ID : 9
Format : Timed Text
Codec ID : tx3g
Duration : 21 min 51 s
Bit rate mode : Variable
Bit rate : 89 b/s
Stream size : 14.2 KiB (0%)
Title : Dutch
Language : Dutch
Forced : No
Encoded date : UTC 2022-05-11 21:24:41
Tagged date : UTC 2022-05-11 21:24:42

Text #8
ID : 10
Format : Timed Text
Codec ID : tx3g
Duration : 21 min 51 s
Bit rate mode : Variable
Bit rate : 91 b/s
Stream size : 14.6 KiB (0%)
Title : Finnish
Language : Finnish
Forced : No
Encoded date : UTC 2022-05-11 21:24:41
Tagged date : UTC 2022-05-11 21:24:42

Text #9
ID : 11
Format : Timed Text
Codec ID : tx3g
Duration : 21 min 51 s
Bit rate mode : Variable
Bit rate : 99 b/s
Stream size : 15.8 KiB (0%)
Title : French
Language : French
Forced : No
Encoded date : UTC 2022-05-11 21:24:41
Tagged date : UTC 2022-05-11 21:24:42

Text #10
ID : 12
Format : Timed Text
Codec ID : tx3g
Duration : 21 min 51 s
Bit rate mode : Variable
Bit rate : 103 b/s
Stream size : 16.5 KiB (0%)
Title : German
Language : German
Forced : No
Encoded date : UTC 2022-05-11 21:24:41
Tagged date : UTC 2022-05-11 21:24:42

Text #11
ID : 13
Format : Timed Text
Codec ID : tx3g
Duration : 21 min 51 s
Bit rate mode : Variable
Bit rate : 150 b/s
Stream size : 24.0 KiB (0%)
Title : Greek
Language : Greek
Forced : No
Encoded date : UTC 2022-05-11 21:24:41
Tagged date : UTC 2022-05-11 21:24:42

Text #12
ID : 14
Format : Timed Text
Codec ID : tx3g
Duration : 21 min 51 s
Bit rate mode : Variable
Bit rate : 102 b/s
Stream size : 16.3 KiB (0%)
Title : Hungarian
Language : Hungarian
Forced : No
Encoded date : UTC 2022-05-11 21:24:41
Tagged date : UTC 2022-05-11 21:24:42

Text #13
ID : 15
Format : Timed Text
Codec ID : tx3g
Duration : 21 min 51 s
Bit rate mode : Variable
Bit rate : 93 b/s
Stream size : 14.9 KiB (0%)
Title : Italian
Language : Italian
Forced : No
Encoded date : UTC 2022-05-11 21:24:41
Tagged date : UTC 2022-05-11 21:24:42

Text #14
ID : 16
Format : Timed Text
Codec ID : tx3g
Duration : 21 min 51 s
Bit rate mode : Variable
Bit rate : 89 b/s
Stream size : 14.2 KiB (0%)
Title : Japanese
Language : Japanese
Forced : No
Encoded date : UTC 2022-05-11 21:24:41
Tagged date : UTC 2022-05-11 21:24:42

Text #15
ID : 17
Format : Timed Text
Codec ID : tx3g
Duration : 21 min 51 s
Bit rate mode : Variable
Bit rate : 90 b/s
Stream size : 14.4 KiB (0%)
Title : Korean
Language : Korean
Forced : No
Encoded date : UTC 2022-05-11 21:24:42
Tagged date : UTC 2022-05-11 21:24:42

Text #16
ID : 18
Format : Timed Text
Codec ID : tx3g
Duration : 21 min 51 s
Bit rate mode : Variable
Bit rate : 89 b/s
Stream size : 14.2 KiB (0%)
Title : Norwegian
Language : Norwegian
Forced : No
Encoded date : UTC 2022-05-11 21:24:42
Tagged date : UTC 2022-05-11 21:24:42

Text #17
ID : 19
Format : Timed Text
Codec ID : tx3g
Duration : 21 min 51 s
Bit rate mode : Variable
Bit rate : 90 b/s
Stream size : 14.4 KiB (0%)
Title : Polish
Language : Polish
Forced : No
Encoded date : UTC 2022-05-11 21:24:42
Tagged date : UTC 2022-05-11 21:24:42

Text #18
ID : 20
Format : Timed Text
Codec ID : tx3g
Duration : 21 min 51 s
Bit rate mode : Variable
Bit rate : 94 b/s
Stream size : 15.0 KiB (0%)
Title : Portuguese
Language : Portuguese
Forced : No
Encoded date : UTC 2022-05-11 21:24:42
Tagged date : UTC 2022-05-11 21:24:42

Text #19
ID : 21
Format : Timed Text
Codec ID : tx3g
Duration : 21 min 51 s
Bit rate mode : Variable
Bit rate : 97 b/s
Stream size : 15.5 KiB (0%)
Title : Portuguese
Language : Portuguese
Forced : No
Encoded date : UTC 2022-05-11 21:24:42
Tagged date : UTC 2022-05-11 21:24:42

Text #20
ID : 22
Format : Timed Text
Codec ID : tx3g
Duration : 21 min 51 s
Bit rate mode : Variable
Bit rate : 103 b/s
Stream size : 16.5 KiB (0%)
Title : Romanian
Language : Romanian
Forced : No
Encoded date : UTC 2022-05-11 21:24:42
Tagged date : UTC 2022-05-11 21:24:42

Text #21
ID : 23
Format : Timed Text
Codec ID : tx3g
Duration : 21 min 51 s
Bit rate mode : Variable
Bit rate : 93 b/s
Stream size : 14.8 KiB (0%)
Title : Slovak
Language : Slovak
Forced : No
Encoded date : UTC 2022-05-11 21:24:42
Tagged date : UTC 2022-05-11 21:24:42

Text #22
ID : 24
Format : Timed Text
Codec ID : tx3g
Duration : 21 min 51 s
Bit rate mode : Variable
Bit rate : 100 b/s
Stream size : 16.1 KiB (0%)
Title : Spanish-EU
Language : Spanish
Forced : No
Encoded date : UTC 2022-05-11 21:24:42
Tagged date : UTC 2022-05-11 21:24:42

Text #23
ID : 25
Format : Timed Text
Codec ID : tx3g
Duration : 21 min 51 s
Bit rate mode : Variable
Bit rate : 99 b/s
Stream size : 15.8 KiB (0%)
Title : Spanish-EU
Language : Spanish
Forced : No
Encoded date : UTC 2022-05-11 21:24:42
Tagged date : UTC 2022-05-11 21:24:42

Text #24
ID : 26
Format : Timed Text
Codec ID : tx3g
Duration : 21 min 51 s
Bit rate mode : Variable
Bit rate : 96 b/s
Stream size : 15.4 KiB (0%)
Title : Swedish
Language : Swedish
Forced : No
Encoded date : UTC 2022-05-11 21:24:42
Tagged date : UTC 2022-05-11 21:24:42

Text #25
ID : 27
Format : Timed Text
Codec ID : tx3g
Duration : 21 min 51 s
Bit rate mode : Variable
Bit rate : 107 b/s
Stream size : 17.2 KiB (0%)
Title : Turkish
Language : Turkish
Forced : No
Encoded date : UTC 2022-05-11 21:24:42
Tagged date : UTC 2022-05-11 21:24:42
下载地址:


游客,如果您要查看本帖隐藏内容请回复

游客,如果您要查看本帖隐藏内容请回复

游客,如果您要查看本帖隐藏内容请回复





上一篇:鲁保罗变装皇后秀 (2021) / 第十四季全16集/4K高清下载
下一篇:高堡奇人(简繁中字)(2019)/第一、四季全打包/4K高清版本下载
回复

使用道具 举报

56

主题

1501

帖子

4359

积分

4K家园VIP

Rank: 9Rank: 9Rank: 9

积分
4359
发表于 2022-5-12 12:39:11 | 显示全部楼层
鼎力支持!!
回复 支持 反对

使用道具 举报

0

主题

1407

帖子

4083

积分

4K家园VIP

Rank: 9Rank: 9Rank: 9

积分
4083
发表于 2022-5-14 04:31:19 | 显示全部楼层
楼下的接上
回复 支持 反对

使用道具 举报

5

主题

1381

帖子

4169

积分

4K家园VIP

Rank: 9Rank: 9Rank: 9

积分
4169
发表于 2022-5-16 15:34:36 | 显示全部楼层
试试看吧
回复 支持 反对

使用道具 举报

2

主题

1168

帖子

3524

积分

4K家园VIP

Rank: 9Rank: 9Rank: 9

积分
3524
发表于 2022-5-16 19:37:34 | 显示全部楼层
楼下的接上
回复 支持 反对

使用道具 举报

0

主题

2

帖子

9

积分

新手上路

Rank: 1

积分
9
发表于 2022-5-16 21:09:10 来自手机 | 显示全部楼层
nvvghhhh
回复

使用道具 举报

0

主题

2

帖子

9

积分

新手上路

Rank: 1

积分
9
发表于 2022-5-16 21:09:51 来自手机 | 显示全部楼层
hvchcjjvvj,hf
回复 支持 反对

使用道具 举报

0

主题

1393

帖子

4013

积分

中级会员

Rank: 4

积分
4013
发表于 2022-5-22 20:43:16 来自手机 | 显示全部楼层
为保住菊花,这个一定得回复!
回复 支持 反对

使用道具 举报

您需要登录后才可以回帖 登录 | 立即注册

本版积分规则

精彩图文
Archiver|手机版|TAG|Sitemap|新帖|专题|联系我们:邮箱: 4kjia.com@gmail.com   

4k家园   ©2019