[4K电影] 美国牧歌 / American Pastoral (2016) 4k高清版本下载

[复制链接]

2325

主题

2474

帖子

1万

积分

超级版主

Rank: 8Rank: 8

积分
17918
 楼主| 发表于 2022-5-12 19:48:52 | 显示全部楼层 |阅读模式

QQ图片20220512194728_副本.png

◎译  名 美国田园诗 / 美国心风暴(台)
◎片  名 American Pastoral
◎年  代 2016
◎产  地 美国 / 中国香港
◎类  别 剧情 / 犯罪
◎语  言 英语
◎上映日期 2016-09-09(多伦多电影节) / 2016-10-21(美国)
◎IMDb评分  6.1/10 from 16592 users
◎IMDb链接  https://www.imdb.com/title/tt0376479/
◎豆瓣评分 7.0/10 from 2172 users
◎豆瓣链接 https://movie.douban.com/subject/3056302/
◎片  长 108分钟
◎导  演 伊万·麦克格雷格 Ewan McGregor
◎编  剧 约翰·罗曼罗 John Romano / 菲利普·罗斯 Philip Roth
◎演  员 伊万·麦克格雷格 Ewan McGregor
       詹妮弗·康纳利 Jennifer Connelly
       达科塔·范宁 Dakota Fanning
       彼得·里格特 Peter Riegert
       鲁珀特·伊文斯 Rupert Evans
       乌佐·阿杜巴 Uzo Aduba
       莫莉·帕克 Molly Parker
       瓦莱瑞·卡瑞 Valorie Curry
       汉娜·诺德伯格 Hannah Nordberg
       朱莉娅·西尔弗曼 Julia Silverman
       马克·海德斯 Mark Hildreth
       萨曼莎·玛西丝 Samantha Mathis
       大卫·斯特雷泽恩 David Strathairn
       欧森·詹姆斯 Ocean James
       大卫·惠伦 David Whalen
       艾米丽·皮奇 Emily Peachey


◎简  介


    影片改编自菲利普·罗斯的《美国三部曲:美国牧歌》,讲述了一个生活看似完美的犹太企业家塞莫尔·利沃夫因女儿在反越战浪潮中的恐怖主义行为而遭遇毁灭的故事。

Video
ID : 1
Format : HEVC
Format/Info : High Efficiency Video Coding
Format profile : Main 10@L5@High
HDR format : Dolby Vision, Version 1.0, dvhe.05.06, BL+RPU
Codec ID : V_MPEGH/ISO/HEVC
Duration : 1 h 48 min
Bit rate : 14.4 Mb/s
Width : 3 828 pixels
Height : 1 584 pixels
Display aspect ratio : 2.40:1
Frame rate mode : Constant
Frame rate : 23.976 (23976/1000) FPS
Color space : YUV
Chroma subsampling : 4:2:0
Bit depth : 10 bits
Bits/(Pixel*Frame) : 0.099
Stream size : 10.9 GiB (80%)
Default : Yes
Forced : No

Audio #1
ID : 2
Format : DTS XLL
Format/Info : Digital Theater Systems
Commercial name : DTS-HD Master Audio
Codec ID : A_DTS
Duration : 1 h 48 min
Bit rate mode : Variable
Bit rate : 3 136 kb/s
Channel(s) : 6 channels
Channel layout : C L R Ls Rs LFE
Sampling rate : 48.0 kHz
Frame rate : 93.750 FPS (512 SPF)
Bit depth : 24 bits
Compression mode : Lossless
Stream size : 2.37 GiB (17%)
Title : DTS-HD MA 5.1
Language : English
Default : Yes
Forced : No

Audio #2
ID : 3
Format : AC-3
Format/Info : Audio Coding 3
Commercial name : Dolby Digital
Codec ID : A_AC3
Duration : 1 h 48 min
Bit rate mode : Constant
Bit rate : 384 kb/s
Channel(s) : 6 channels
Channel layout : L R C LFE Ls Rs
Sampling rate : 48.0 kHz
Frame rate : 31.250 FPS (1536 SPF)
Compression mode : Lossy
Stream size : 297 MiB (2%)
Language : English
Service kind : Complete Main
Default : Yes
Forced : No

Text #1
ID : 4
Format : UTF-8
Codec ID : S_TEXT/UTF8
Codec ID/Info : UTF-8 Plain Text
Duration : 1 h 42 min
Bit rate : 67 b/s
Count of elements : 1533
Stream size : 50.9 KiB (0%)
Title : English CC
Language : English
Default : Yes
Forced : No

Text #2
ID : 5
Format : PGS
Muxing mode : zlib
Codec ID : S_HDMV/PGS
Codec ID/Info : Picture based subtitle format used on BDs/HD-DVDs
Duration : 1 h 42 min
Bit rate : 42.0 kb/s
Count of elements : 2870
Stream size : 30.7 MiB (0%)
Title : SDH
Language : English
Default : No
Forced : No

Text #3
ID : 6
Format : PGS
Muxing mode : zlib
Codec ID : S_HDMV/PGS
Codec ID/Info : Picture based subtitle format used on BDs/HD-DVDs
Duration : 1 h 40 min
Bit rate : 39.0 kb/s
Count of elements : 2680
Stream size : 28.0 MiB (0%)
Title : Latin American
Language : Spanish
Default : No
Forced : No

Menu
00:00:00.000 : en:Chapter 01
00:03:48.000 : en:Chapter 02
00:14:40.000 : en:Chapter 03
00:24:36.000 : en:Chapter 04
00:37:59.000 : en:Chapter 05
00:48:58.000 : en:Chapter 06
00:58:05.000 : en:Chapter 07
01:08:46.000 : en:Chapter 08
01:14:35.000 : en:Chapter 09
01:27:33.000 : en:Chapter 10
01:42:35.000 : en:Chapter 11


资源速度为零或资源敏感被和谐时,推荐使用qBittorrent等下载软件,有条件的推荐115更好的下载软件!

下载地址:


游客,如果您要查看本帖隐藏内容请回复

游客,如果您要查看本帖隐藏内容请回复

游客,如果您要查看本帖隐藏内容请回复




.

上一篇:北欧人(附字幕) / The Northman (2022) 4k高清版本下载
下一篇:加州公路巡警(内封简繁中字)/CHIPS (2017) 4k高清版本下载
回复

使用道具 举报

1

主题

1309

帖子

3951

积分

4K家园VIP

Rank: 9Rank: 9Rank: 9

积分
3951
发表于 2022-5-12 19:48:56 | 显示全部楼层
前排,哇咔咔
回复 支持 反对

使用道具 举报

49

主题

1483

帖子

4275

积分

4K家园VIP

Rank: 9Rank: 9Rank: 9

积分
4275
发表于 2022-5-12 19:50:33 来自手机 | 显示全部楼层
楼猪V5啊
回复 支持 反对

使用道具 举报

5

主题

1706

帖子

4724

积分

4K家园VIP

Rank: 9Rank: 9Rank: 9

积分
4724
发表于 2022-5-12 21:18:17 | 显示全部楼层
very good
回复 支持 反对

使用道具 举报

1

主题

1332

帖子

4016

积分

4K家园VIP

Rank: 9Rank: 9Rank: 9

积分
4016
发表于 2022-5-12 23:03:18 | 显示全部楼层
正需要
回复 支持 反对

使用道具 举报

0

主题

2

帖子

9

积分

新手上路

Rank: 1

积分
9
发表于 2022-5-12 23:11:28 来自手机 | 显示全部楼层
好棒,谢谢资源分享!!!!
回复 支持 反对

使用道具 举报

6

主题

1463

帖子

4235

积分

4K家园VIP

Rank: 9Rank: 9Rank: 9

积分
4235
发表于 2022-5-13 04:05:07 | 显示全部楼层
众里寻他千百度,蓦然回首在这里!
回复 支持 反对

使用道具 举报

0

主题

3

帖子

42

积分

新手上路

Rank: 1

积分
42
发表于 2022-5-13 09:35:45 | 显示全部楼层

Where is Administration 4kjia.com ??

Where is administration?
It is about advertisement on your website.
Regards.
回复 支持 反对

使用道具 举报

0

主题

472

帖子

2877

积分

注册会员

Rank: 2

积分
2877
发表于 2022-5-13 11:25:33 | 显示全部楼层
谢谢资源分享
回复 支持 反对

使用道具 举报

0

主题

3

帖子

12

积分

新手上路

Rank: 1

积分
12
发表于 2022-5-13 15:09:00 | 显示全部楼层
超级棒的影片
回复 支持 反对

使用道具 举报

您需要登录后才可以回帖 登录 | 立即注册

本版积分规则

精彩图文
Archiver|手机版|TAG|Sitemap|新帖|专题|联系我们:邮箱: 4kjia.com@gmail.com   

4k家园   ©2019