[4K电影] 加州公路巡警(内封简繁中字)/CHIPS (2017) 4k高清版本下载

[复制链接]

1735

主题

1868

帖子

1万

积分

超级版主

Rank: 8Rank: 8

积分
14105
 楼主| 发表于 2022-5-12 20:10:31 | 显示全部楼层 |阅读模式

QQ图片20220512200754_副本.png

◎标  题 加州公路巡警
◎译  名 公路巡警
◎片  名 CHIPS
◎年  代 2017
◎产  地 美国
◎类  别 剧情 / 喜剧 / 动作
◎语  言 英语
◎上映日期 2017-03-24(美国)
◎IMDb评分  6.0/10 from 46493 users
◎IMDb链接  https://www.imdb.com/title/tt0493405/
◎豆瓣评分 6.7/10 from 4071 users
◎豆瓣链接 https://movie.douban.com/subject/3011328/
◎片  长 100分钟
◎导  演 戴克斯·夏普德 Dax Shepard
◎编  剧 戴克斯·夏普德 Dax Shepard
◎演  员 迈克尔·佩纳 Michael Peña
       戴克斯·夏普德 Dax Shepard
       杰西卡·麦克娜美 Jessica McNamee
       亚当·布罗迪 Adam Brody
       瑞恩·汉森 Ryan Hansen
       克里斯汀·贝尔 Kristen Bell
       文森特·多诺费奥 Vincent D'Onofrio
       本·法尔科内 Ben Falcone
       贾斯汀·查特文 Justin Chatwin
       罗莎·萨拉查 Rosa Salazar
       玛娅·鲁道夫 Maya Rudolph
       亚当·罗德里格兹 Adam Rodriguez
       简·卡兹玛拉克 Jane Kaczmarek
       维达·茱拉 Vida Guerra
       玛拉·马里尼 Mara Marini


◎简  介


    高速路上的巡警们每天的职责,除了抓偷车贼和对超速车辆进行追捕罚款之外,还有很多更多的乐趣。如今,在加州早已闻名的高速巡警弗兰克(迈克尔·佩纳饰)不仅是个脾气火爆办案也火爆的家伙,更有一身让领导难以容忍的坏脾气,但同行们却送给他“邮袋”的绰号,意思是他总能及时解决大麻烦,不过也会给别人惹下大麻烦。与此同时,另一个叫贝克(戴克斯·夏普德饰)的巡警同样饱受争议,不仅行事高调、满嘴的限制级语言,连脾气也和弗兰克很像。但两人办起案来却相当的投入和尽责。如今,两人被安排为新搭档。车技了得的他们在改装高手的帮助下,也开启了加州高速路上的大抓捕……

Video
ID : 1
Format : HEVC
Format/Info : High Efficiency Video Coding
Format profile : Main 10@L5@High
HDR format : Dolby Vision, Version 1.0, dvhe.05.06, BL+RPU
Codec ID : V_MPEGH/ISO/HEVC
Duration : 1 h 40 min
Bit rate : 24.3 Mb/s
Width : 3 840 pixels
Height : 2 160 pixels
Display aspect ratio : 16:9
Frame rate mode : Constant
Frame rate : 23.976 (24000/1001) FPS
Color space : YUV
Chroma subsampling : 4:2:0
Bit depth : 10 bits
Bits/(Pixel*Frame) : 0.122
Stream size : 17.1 GiB (85%)
Default : Yes
Forced : No

Audio #1
ID : 2
Format : DTS XLL
Format/Info : Digital Theater Systems
Commercial name : DTS-HD Master Audio
Codec ID : A_DTS
Duration : 1 h 40 min
Bit rate mode : Variable
Bit rate : 3 942 kb/s
Channel(s) : 6 channels
Channel layout : C L R Ls Rs LFE
Sampling rate : 48.0 kHz
Frame rate : 93.750 FPS (512 SPF)
Bit depth : 24 bits
Compression mode : Lossless
Delay relative to video : 3 ms
Stream size : 2.78 GiB (14%)
Title : DTS-HD MA 5.1
Language : English
Default : Yes
Forced : No

Audio #2
ID : 3
Format : AC-3
Format/Info : Audio Coding 3
Commercial name : Dolby Digital
Codec ID : A_AC3
Duration : 1 h 40 min
Bit rate mode : Constant
Bit rate : 384 kb/s
Channel(s) : 6 channels
Channel layout : L R C LFE Ls Rs
Sampling rate : 48.0 kHz
Frame rate : 31.250 FPS (1536 SPF)
Compression mode : Lossy
Stream size : 277 MiB (1%)
Language : English
Service kind : Complete Main
Default : Yes
Forced : No

Text #1
ID : 4
Format : UTF-8
Codec ID : S_TEXT/UTF8
Codec ID/Info : UTF-8 Plain Text
Duration : 1 h 39 min
Bit rate : 95 b/s
Count of elements : 2188
Stream size : 69.7 KiB (0%)
Title : English CC
Language : English
Default : Yes
Forced : No

Text #2
ID : 5
Format : UTF-8
Codec ID : S_TEXT/UTF8
Codec ID/Info : UTF-8 Plain Text
Duration : 1 h 38 min
Bit rate : 138 b/s
Count of elements : 1869
Stream size : 99.6 KiB (0%)
Title : Arabic
Language : Arabic
Default : No
Forced : No

Text #3
ID : 6
Format : UTF-8
Codec ID : S_TEXT/UTF8
Codec ID/Info : UTF-8 Plain Text
Duration : 1 h 40 min
Bit rate : 121 b/s
Count of elements : 1898
Stream size : 88.9 KiB (0%)
Title : Bulgarian
Language : Bulgarian
Default : No
Forced : No

正文#4

ID:7
格式:UTF-8
编解码器ID:S_TEXT/UTF8
F-8:纯文本编解码器
持续时间:1小时38分钟
比特率:76 b/s
元素计数:1868
河流规模:55.0千磅(0%)
标题:简体中文
语言:中文
默认值:否
被迫的:没有


文本#5
身份证号码:8
格式:UTF-8
编解码器ID:S_TEXT/UTF8
F-8:文本编解码器
持续时间:1小时40分钟
比特率:63 b/s
元素计数:1869
河流规模:46.8千磅(0%)
标题:中国传统文化
语言:中文
默认值:否
被迫的:没有


Text #6
ID : 9
Format : UTF-8
Codec ID : S_TEXT/UTF8
Codec ID/Info : UTF-8 Plain Text
Duration : 1 h 38 min
Bit rate : 76 b/s
Count of elements : 1854
Stream size : 55.2 KiB (0%)
Title : Danish
Language : Danish
Default : No
Forced : No

Text #7
ID : 10
Format : UTF-8
Codec ID : S_TEXT/UTF8
Codec ID/Info : UTF-8 Plain Text
Duration : 1 h 38 min
Bit rate : 98 b/s
Count of elements : 1958
Stream size : 71.0 KiB (0%)
Title : German
Language : German
Default : No
Forced : No

Text #8
ID : 11
Format : UTF-8
Codec ID : S_TEXT/UTF8
Codec ID/Info : UTF-8 Plain Text
Duration : 1 h 40 min
Bit rate : 126 b/s
Count of elements : 1861
Stream size : 93.0 KiB (0%)
Title : Greek
Language : Greek
Default : No
Forced : No

Text #9
ID : 12
Format : UTF-8
Codec ID : S_TEXT/UTF8
Codec ID/Info : UTF-8 Plain Text
Duration : 1 h 40 min
Bit rate : 76 b/s
Count of elements : 1880
Stream size : 56.5 KiB (0%)
Title : Spanish Latin American
Language : Spanish
Default : No
Forced : No

Text #10
ID : 13
Format : UTF-8
Codec ID : S_TEXT/UTF8
Codec ID/Info : UTF-8 Plain Text
Duration : 1 h 38 min
Bit rate : 79 b/s
Count of elements : 1831
Stream size : 57.1 KiB (0%)
Title : Spanish European
Language : Spanish
Default : No
Forced : No

Text #11
ID : 14
Format : UTF-8
Codec ID : S_TEXT/UTF8
Codec ID/Info : UTF-8 Plain Text
Duration : 1 h 38 min
Bit rate : 79 b/s
Count of elements : 1858
Stream size : 56.9 KiB (0%)
Title : Estonian
Language : Estonian
Default : No
Forced : No

Text #12
ID : 15
Format : UTF-8
Codec ID : S_TEXT/UTF8
Codec ID/Info : UTF-8 Plain Text
Duration : 1 h 38 min
Bit rate : 70 b/s
Count of elements : 1858
Stream size : 51.0 KiB (0%)
Title : Finnish
Language : Finnish
Default : No
Forced : No

Text #13
ID : 16
Format : UTF-8
Codec ID : S_TEXT/UTF8
Codec ID/Info : UTF-8 Plain Text
Duration : 1 h 38 min
Bit rate : 86 b/s
Count of elements : 1855
Stream size : 61.9 KiB (0%)
Title : French Canadian
Language : French
Default : No
Forced : No

Text #14
ID : 17
Format : UTF-8
Codec ID : S_TEXT/UTF8
Codec ID/Info : UTF-8 Plain Text
Duration : 1 h 40 min
Bit rate : 84 b/s
Count of elements : 1856
Stream size : 62.0 KiB (0%)
Title : French European
Language : French
Default : No
Forced : No

Text #15
ID : 18
Format : UTF-8
Codec ID : S_TEXT/UTF8
Codec ID/Info : UTF-8 Plain Text
Duration : 1 h 40 min
Bit rate : 125 b/s
Count of elements : 1899
Stream size : 92.0 KiB (0%)
Title : Hebrew
Language : Hebrew
Default : No
Forced : No

Text #16
ID : 19
Format : UTF-8
Codec ID : S_TEXT/UTF8
Codec ID/Info : UTF-8 Plain Text
Duration : 1 h 40 min
Bit rate : 74 b/s
Count of elements : 1853
Stream size : 54.8 KiB (0%)
Title : Hungarian
Language : Hungarian
Default : No
Forced : No

Text #17
ID : 20
Format : UTF-8
Codec ID : S_TEXT/UTF8
Codec ID/Info : UTF-8 Plain Text
Duration : 1 h 38 min
Bit rate : 75 b/s
Count of elements : 1858
Stream size : 54.2 KiB (0%)
Title : Indonesian
Language : Indonesian
Default : No
Forced : No

Text #18
ID : 21
Format : UTF-8
Codec ID : S_TEXT/UTF8
Codec ID/Info : UTF-8 Plain Text
Duration : 1 h 38 min
Bit rate : 77 b/s
Count of elements : 1915
Stream size : 55.7 KiB (0%)
Title : Italian
Language : Italian
Default : No
Forced : No

Text #19
ID : 22
Format : UTF-8
Codec ID : S_TEXT/UTF8
Codec ID/Info : UTF-8 Plain Text
Duration : 1 h 40 min
Bit rate : 77 b/s
Count of elements : 1912
Stream size : 56.6 KiB (0%)
Title : Lithuanian
Language : Lithuanian
Default : No
Forced : No

Text #20
ID : 23
Format : UTF-8
Codec ID : S_TEXT/UTF8
Codec ID/Info : UTF-8 Plain Text
Duration : 1 h 38 min
Bit rate : 79 b/s
Count of elements : 1859
Stream size : 57.2 KiB (0%)
Title : Latvian
Language : Latvian
Default : No
Forced : No

Text #21
ID : 24
Format : UTF-8
Codec ID : S_TEXT/UTF8
Codec ID/Info : UTF-8 Plain Text
Duration : 1 h 40 min
Bit rate : 59 b/s
Count of elements : 1374
Stream size : 43.8 KiB (0%)
Title : Dutch
Language : Dutch
Default : No
Forced : No

Text #22
ID : 25
Format : UTF-8
Codec ID : S_TEXT/UTF8
Codec ID/Info : UTF-8 Plain Text
Duration : 1 h 38 min
Bit rate : 64 b/s
Count of elements : 1335
Stream size : 46.8 KiB (0%)
Title : Norwegian
Language : Norwegian
Default : No
Forced : No

Text #23
ID : 26
Format : UTF-8
Codec ID : S_TEXT/UTF8
Codec ID/Info : UTF-8 Plain Text
Duration : 1 h 38 min
Bit rate : 71 b/s
Count of elements : 1852
Stream size : 51.8 KiB (0%)
Title : Polish
Language : Polish
Default : No
Forced : No

Text #24
ID : 27
Format : UTF-8
Codec ID : S_TEXT/UTF8
Codec ID/Info : UTF-8 Plain Text
Duration : 1 h 40 min
Bit rate : 70 b/s
Count of elements : 1883
Stream size : 52.1 KiB (0%)
Title : Portuguese Brazilian
Language : Portuguese
Default : No
Forced : No

Text #25
ID : 28
Format : UTF-8
Codec ID : S_TEXT/UTF8
Codec ID/Info : UTF-8 Plain Text
Duration : 1 h 40 min
Bit rate : 69 b/s
Count of elements : 1875
Stream size : 51.2 KiB (0%)
Title : Portuguese European
Language : Portuguese
Default : No
Forced : No

Text #26
ID : 29
Format : UTF-8
Codec ID : S_TEXT/UTF8
Codec ID/Info : UTF-8 Plain Text
Duration : 1 h 40 min
Bit rate : 122 b/s
Count of elements : 1867
Stream size : 90.1 KiB (0%)
Title : Russian
Language : Russian
Default : No
Forced : No

Text #27
ID : 30
Format : UTF-8
Codec ID : S_TEXT/UTF8
Codec ID/Info : UTF-8 Plain Text
Duration : 1 h 38 min
Bit rate : 70 b/s
Count of elements : 1853
Stream size : 50.6 KiB (0%)
Title : Slovenian
Language : Slovenian
Default : No
Forced : No

Text #28
ID : 31
Format : UTF-8
Codec ID : S_TEXT/UTF8
Codec ID/Info : UTF-8 Plain Text
Duration : 1 h 38 min
Bit rate : 77 b/s
Count of elements : 1855
Stream size : 55.6 KiB (0%)
Title : Swedish
Language : Swedish
Default : No
Forced : No

Text #29
ID : 32
Format : UTF-8
Codec ID : S_TEXT/UTF8
Codec ID/Info : UTF-8 Plain Text
Duration : 1 h 38 min
Bit rate : 202 b/s
Count of elements : 1868
Stream size : 145 KiB (0%)
Title : Thai
Language : Thai
Default : No
Forced : No

Text #30
ID : 33
Format : UTF-8
Codec ID : S_TEXT/UTF8
Codec ID/Info : UTF-8 Plain Text
Duration : 1 h 38 min
Bit rate : 79 b/s
Count of elements : 1852
Stream size : 56.9 KiB (0%)
Title : Turkish
Language : Turkish
Default : No
Forced : No

正文#31
身份证号码:34
格式:UTF-8
编解码器ID:S_TEXT/UTF8
F-8:纯文本编解码器
持续时间:1小时40分钟
比特率:60 b/s
元素计数:1867
河流规模:44.3千磅(0%)
标题:中国广东传统文化
语言:中文
默认值:否
被迫的:没有


Menu
00:00:00.000 : en:Chapter 01
00:10:48.000 : en:Chapter 02
00:19:28.000 : en:Chapter 03
00:29:57.000 : en:Chapter 04
00:39:53.000 : en:Chapter 05
00:50:45.000 : en:Chapter 06
01:02:38.000 : en:Chapter 07
01:13:40.000 : en:Chapter 08
01:25:41.000 : en:Chapter 09
01:37:41.000 : en:Chapter 10


资源速度为零或资源敏感被和谐时,推荐使用qBittorrent等下载软件,有条件的推荐115更好的下载软件!

下载地址:


游客,如果您要查看本帖隐藏内容请回复

游客,如果您要查看本帖隐藏内容请回复

游客,如果您要查看本帖隐藏内容请回复

游客,如果您要查看本帖隐藏内容请回复










上一篇:美国牧歌 / American Pastoral (2016) 4k高清版本下载
下一篇:爱的怪物论 / Monstrous (2022) 4k高清版本下载
回复

使用道具 举报

56

主题

1485

帖子

4311

积分

4K家园VIP

Rank: 9Rank: 9Rank: 9

积分
4311
发表于 2022-5-12 20:10:37 | 显示全部楼层
元芳你怎么看?
回复 支持 反对

使用道具 举报

0

主题

2

帖子

18

积分

新手上路

Rank: 1

积分
18
发表于 2022-5-13 09:31:05 | 显示全部楼层
加州公路巡警
回复 支持 反对

使用道具 举报

52

主题

1472

帖子

4246

积分

4K家园VIP

Rank: 9Rank: 9Rank: 9

积分
4246
发表于 2022-5-13 16:12:41 来自手机 | 显示全部楼层
垃圾
回复 支持 反对

使用道具 举报

0

主题

1724

帖子

4686

积分

4K家园VIP

Rank: 9Rank: 9Rank: 9

积分
4686
发表于 2022-5-13 23:45:00 | 显示全部楼层
感谢分享
回复 支持 反对

使用道具 举报

51

主题

1400

帖子

4032

积分

4K家园VIP

Rank: 9Rank: 9Rank: 9

积分
4032
发表于 7 天前 | 显示全部楼层
支持你哈...................................
回复 支持 反对

使用道具 举报

5

主题

1642

帖子

4546

积分

中级会员

Rank: 4

积分
4546
发表于 4 天前 | 显示全部楼层
边撸边过
回复 支持 反对

使用道具 举报

您需要登录后才可以回帖 登录 | 立即注册

本版积分规则

精彩图文
Archiver|手机版|TAG|Sitemap|新帖|专题|联系我们:邮箱: 4kjia.com@gmail.com   

4k家园   ©2019