2022 泰延 - INVU [4K原始版本.alang][2160P/MP4/639MB]

[复制链接]

2850

主题

3217

帖子

2万

积分

超级版主

Rank: 8Rank: 8

积分
27209
 楼主| 发表于 2022-5-12 21:34:27 | 显示全部楼层 |阅读模式
Taeyeon - INVU [BE ORIGINAL 4K].mp4_20220512_211757.478.jpg Taeyeon - INVU [BE ORIGINAL 4K].mp4_20220512_211803.140.jpg Taeyeon - INVU [BE ORIGINAL 4K].mp4_20220512_211809.508.jpg Taeyeon - INVU [BE ORIGINAL 4K].mp4_20220512_211818.436.jpg Taeyeon - INVU [BE ORIGINAL 4K].mp4_20220512_211825.619.jpg Taeyeon - INVU [BE ORIGINAL 4K].mp4_20220512_211831.259.jpg

General
Complete name                  : F:\4K MV制作\Taeyeon\Taeyeon - INVU [BE ORIGINAL 4K].mp4
Format                         : MPEG-4
Format profile                 : Base Media
Codec ID                       : isom (isom/iso2/mp41)
File size                      : 632 MiB
Duration                       : 3 min 34 s
Overall bit rate mode          : Variable
Overall bit rate               : 24.7 Mb/s
Encoded date                   : UTC 2022-02-18 16:40:03
Tagged date                    : UTC 2022-02-18 16:40:03
Writing application            : Lavf58.12.100

Video
ID                             : 1
Format                         : HEVC
Format/Info                    : High Efficiency Video Coding
Format profile                 : Main@L5.1@High
Codec ID                       : hvc1
Codec ID/Info                  : High Efficiency Video Coding
Duration                       : 3 min 34 s
Bit rate                       : 24.5 Mb/s
Width                          : 3 840 pixels
Height                         : 2 160 pixels
Display aspect ratio           : 16:9
Frame rate mode                : Variable
Frame rate                     : 59.940 FPS
Minimum frame rate             : 58.645 FPS
Maximum frame rate             : 62.503 FPS
Color space                    : YUV
Chroma subsampling             : 4:2:0
Bit depth                      : 8 bits
Bits/(Pixel*Frame)             : 0.049
Stream size                    : 627 MiB (99%)
Language                       : English
Encoded date                   : UTC 2022-02-18 16:40:03
Tagged date                    : UTC 2022-02-18 16:40:03
Codec configuration box        : hvcC

Audio
ID                             : 2
Format                         : AAC LC
Format/Info                    : Advanced Audio Codec Low Complexity
Codec ID                       : mp4a-40-2
Duration                       : 3 min 34 s
Bit rate mode                  : Variable
Bit rate                       : 192 kb/s
Maximum bit rate               : 256 kb/s
Channel(s)                     : 2 channels
Channel layout                 : L R
Sampling rate                  : 48.0 kHz
Frame rate                     : 46.875 FPS (1024 SPF)
Compression mode               : Lossy
Stream size                    : 4.85 MiB (1%)
Default                        : Yes
Alternate group                : 1
Encoded date                   : UTC 2022-02-18 16:40:03
Tagged date                    : UTC 2022-02-18 16:40:03
下载地址:

游客,如果您要查看本帖隐藏内容请回复

PS:小水管制作不易,下载后请自觉做种,谢谢!
提供2010-2022年本人多年来珍藏优质(容量5-600GB)[4K、8K、16K(25-120fps)] 高品质韩国(女团)MV、各种演示片、测试片等4K韩国MV“珍藏版”视频硬盘有偿拷贝或网盘分享,最新4K视频每天更新中,需要的联系本楼主!




.

上一篇:[4K韩国女团] 2022 全素妍- Beam Beam[收藏Master 2160][2160P/MP4/1.50GB]
下一篇:[4K欧美 MV]卡迪B&梅根-Thee Stallion 4K [2160P/MKV/489MB]
回复

使用道具 举报

0

主题

1319

帖子

3973

积分

4K家园VIP

Rank: 9Rank: 9Rank: 9

积分
3973
发表于 2022-5-12 21:34:32 来自手机 | 显示全部楼层
前排支持下了哦~
回复 支持 反对

使用道具 举报

0

主题

2

帖子

159

积分

4K家园VIP

Rank: 9Rank: 9Rank: 9

积分
159
发表于 2022-5-13 22:24:09 | 显示全部楼层
66666666666666666666666666
回复 支持 反对

使用道具 举报

1

主题

1309

帖子

3951

积分

4K家园VIP

Rank: 9Rank: 9Rank: 9

积分
3951
发表于 2022-5-13 23:54:23 | 显示全部楼层
鄙视楼下的顶帖没我快,哈哈
回复 支持 反对

使用道具 举报

1

主题

1369

帖子

4135

积分

4K家园VIP

Rank: 9Rank: 9Rank: 9

积分
4135
发表于 2022-5-15 16:20:07 | 显示全部楼层
顶顶更健康
回复 支持 反对

使用道具 举报

1

主题

1380

帖子

3994

积分

4K家园VIP

Rank: 9Rank: 9Rank: 9

积分
3994
发表于 2022-5-15 20:50:33 来自手机 | 显示全部楼层
看起来不错
回复 支持 反对

使用道具 举报

37

主题

1522

帖子

4370

积分

4K家园VIP

Rank: 9Rank: 9Rank: 9

积分
4370
发表于 2022-5-17 06:27:05 | 显示全部楼层
1v1飘过
回复 支持 反对

使用道具 举报

0

主题

14

帖子

27

积分

新手上路

Rank: 1

积分
27
发表于 2022-5-18 12:11:37 | 显示全部楼层
好贴子
回复

使用道具 举报

0

主题

2

帖子

9

积分

新手上路

Rank: 1

积分
9
发表于 2022-5-18 22:37:15 | 显示全部楼层
支持呀
回复

使用道具 举报

0

主题

2

帖子

9

积分

新手上路

Rank: 1

积分
9
发表于 2022-5-24 16:53:00 | 显示全部楼层
66666666666666666666666
回复 支持 反对

使用道具 举报

您需要登录后才可以回帖 登录 | 立即注册

本版积分规则

精彩图文
Archiver|手机版|TAG|Sitemap|新帖|专题|联系我们:邮箱: 4kjia.com@gmail.com   

4k家园   ©2019