高堡奇人(简繁中字)(2019)/第一、四季全打包/4K高清版本下载

[复制链接]

126

主题

145

帖子

1412

积分

版主

Rank: 7Rank: 7Rank: 7

积分
1412
 楼主| 发表于 7 天前 | 显示全部楼层 |阅读模式
本帖最后由 美剧小虾 于 2022-5-13 11:44 编辑

1_副本.jpg

◎译  名 高堡奇人/高城堡里的人
◎片  名 The Man in the High Castle
◎年  代 2015
◎产  地 美国
◎类  别 剧情/科幻/惊悚
◎语  言 英语/德语/日语/粤语
◎上映日期 2015-01-15(试播集)/2015-11-20(美国)
◎IMDb评分  7.9/10 from 98449 users
◎IMDb链接  http://www.imdb.com/title/tt1740299/
◎豆瓣评分 7.7/10 from 15035 users
◎豆瓣链接 https://movie.douban.com/subject/5320649/
◎片  长 55分钟
◎导  演 大卫·塞梅尔 David Semel
◎主  演 艾莉克莎·黛沃洛斯 Alexa Davalos
      鲁珀特·伊文斯 Rupert Evans
      卢克·克莱恩坦克 Luke Kleintank
      DJ·考尔斯 DJ Qualls
      乔尔·德·拉·冯特 Joel de la Fuente
      田川洋行 Cary-Hiroyuki Tagawa
      卢夫斯·塞维尔 Rufus Sewell
      迈克尔·瑞斯玻利 Michael Rispoli
      杰弗里·布莱克 Geoffrey Blake
      卡尔斯腾·诺尔加拉德 Carsten Norgaard
      康纳·莱斯利 Conor Leslie
      阿诺德·陈 Arnold Chun
      里克·沃尔斯 Rick Worthy
      杰克·科勒尔 Jack Kehler
      汉克·哈里斯 Hank Harris
      香农·戴 Shannon Day
      松崎悠希 Yuki Matsuzaki
      伯恩哈德·福克 Bernhard Forcher
      艾伦·哈韦 Allan Havey
      朗·罗格 Ron Roggé
      保罗·佩普 Paul Pape
      冈本多绪 Tao Okamoto

◎简  介


  《高堡奇人》讲述了一个替代现实故事,德国和日本打赢了二战,美国被德国和日本统治,希特勒感染了梅毒,德国开始征服太阳系,而一位高堡奇人却在创作一本书讲述美国打赢二战的故事。
Video
ID : 1
Format : HEVC
Format/Info : High Efficiency Video Coding
Format profile : Main 10@L5@Main
HDR format : SMPTE ST 2094 App 4, Version 0
Codec ID : V_MPEGH/ISO/HEVC
Duration : 1 h 0 min
Bit rate : 14.6 Mb/s
Width : 3 840 pixels
Height : 2 160 pixels
Display aspect ratio : 16:9
Frame rate mode : Constant
Frame rate : 23.976 (24000/1001) FPS
Standard : NTSC
Color space : YUV
Chroma subsampling : 4:2:0 (Type 2)
Bit depth : 10 bits
Bits/(Pixel*Frame) : 0.074
Stream size : 6.14 GiB (96%)
Default : Yes
Forced : No
Color range : Limited
Color primaries : BT.2020
Transfer characteristics : PQ
Matrix coefficients : BT.2020 non-constant
Mastering display color primaries : Display P3
Mastering display luminance : min: 0.0001 cd/m2, max: 1000 cd/m2
Maximum Content Light Level : 1000 cd/m2
Maximum Frame-Average Light Level : 820 cd/m2

Audio
ID : 2
Format : E-AC-3
Format/Info : Enhanced AC-3
Commercial name : Dolby Digital Plus
Codec ID : A_EAC3
Duration : 1 h 0 min
Bit rate mode : Constant
Bit rate : 640 kb/s
Channel(s) : 6 channels
Channel layout : L R C LFE Ls Rs
Sampling rate : 48.0 kHz
Frame rate : 31.250 FPS (1536 SPF)
Compression mode : Lossy
Stream size : 275 MiB (4%)
Title : English
Language : English
Service kind : Complete Main
Default : Yes
Forced : No

Text #1
ID : 3
Format : UTF-8
Codec ID : S_TEXT/UTF8
Codec ID/Info : UTF-8 Plain Text
Duration : 58 min 23 s
Bit rate : 54 b/s
Count of elements : 788
Stream size : 23.3 KiB (0%)
Title : English [SDH]
Language : English
Default : No
Forced : No

Text #2
ID : 4
Format : UTF-8
Codec ID : S_TEXT/UTF8
Codec ID/Info : UTF-8 Plain Text
Duration : 57 min 27 s
Bit rate : 47 b/s
Count of elements : 646
Stream size : 20.1 KiB (0%)
Title : Castilian [Full]
Language : Spanish
Default : No
Forced : No

Text #3
ID : 5
Format : UTF-8
Codec ID : S_TEXT/UTF8
Codec ID/Info : UTF-8 Plain Text
Duration : 57 min 27 s
Bit rate : 47 b/s
Count of elements : 646
Stream size : 20.1 KiB (0%)
Title : Spanish [Full]
Language : Spanish
Default : No
Forced : No

Text #4
ID : 6
Format : UTF-8
Codec ID : S_TEXT/UTF8
Codec ID/Info : UTF-8 Plain Text
Duration : 57 min 27 s
Bit rate : 54 b/s
Count of elements : 664
Stream size : 23.0 KiB (0%)
Title : French [Full]
Language : French
Default : No
Forced : No

Text #5
ID : 7
Format : UTF-8
Codec ID : S_TEXT/UTF8
Codec ID/Info : UTF-8 Plain Text
Duration : 57 min 11 s
Bit rate : 46 b/s
Count of elements : 530
Stream size : 19.4 KiB (0%)
Title : German [Full]
Language : German
Default : No
Forced : No

Text #6
ID : 8
Format : UTF-8
Codec ID : S_TEXT/UTF8
Codec ID/Info : UTF-8 Plain Text
Duration : 57 min 27 s
Bit rate : 49 b/s
Count of elements : 646
Stream size : 20.7 KiB (0%)
Title : Italian [Full]
Language : Italian
Default : No
Forced : No

Text #7
ID : 9
Format : UTF-8
Codec ID : S_TEXT/UTF8
Codec ID/Info : UTF-8 Plain Text
Duration : 57 min 27 s
Bit rate : 45 b/s
Count of elements : 646
Stream size : 19.3 KiB (0%)
Title : Brazilian Portuguese [Full]
Language : Portuguese
Default : No
Forced : No

Text #8
ID : 10
Format : UTF-8
Codec ID : S_TEXT/UTF8
Codec ID/Info : UTF-8 Plain Text
Duration : 57 min 27 s
Bit rate : 44 b/s
Count of elements : 648
Stream size : 18.5 KiB (0%)
Title : Polish [Full]
Language : Polish
Default : No
Forced : No

Text #9
ID : 11
Format : UTF-8
Codec ID : S_TEXT/UTF8
Codec ID/Info : UTF-8 Plain Text
Duration : 57 min 27 s
Bit rate : 49 b/s
Count of elements : 662
Stream size : 20.9 KiB (0%)
Title : Turkish [Full]
Language : Turkish
Default : No
Forced : No

Text #10
ID : 12
Format : UTF-8
Codec ID : S_TEXT/UTF8
Codec ID/Info : UTF-8 Plain Text
Duration : 57 min 27 s
Bit rate : 48 b/s
Count of elements : 656
Stream size : 20.3 KiB (0%)
Title : Swedish [Full]
Language : Swedish
Default : No
Forced : No

Text #11
ID : 13
Format : UTF-8
Codec ID : S_TEXT/UTF8
Codec ID/Info : UTF-8 Plain Text
Duration : 57 min 27 s
Bit rate : 46 b/s
Count of elements : 662
Stream size : 19.7 KiB (0%)
Title : Finnish [Full]
Language : Finnish
Default : No
Forced : No

Text #12
ID : 14
Format : UTF-8
Codec ID : S_TEXT/UTF8
Codec ID/Info : UTF-8 Plain Text
Duration : 57 min 27 s
Bit rate : 47 b/s
Count of elements : 653
Stream size : 19.8 KiB (0%)
Title : Dutch [Full]
Language : Dutch
Default : No
Forced : No

Text #13
ID : 15
Format : UTF-8
Codec ID : S_TEXT/UTF8
Codec ID/Info : UTF-8 Plain Text
Duration : 57 min 27 s
Bit rate : 47 b/s
Count of elements : 660
Stream size : 19.8 KiB (0%)
Title : Norwegian (Bokmål) [Full]
Language : Norwegian Bokmal
Default : No
Forced : No

Text #14
ID : 16
Format : UTF-8
Codec ID : S_TEXT/UTF8
Codec ID/Info : UTF-8 Plain Text
Duration : 57 min 27 s
Bit rate : 83 b/s
Count of elements : 666
Stream size : 35.2 KiB (0%)
Title : Russian [Full]
Language : Russian
Default : No
Forced : No

Text #15
ID : 17
Format : UTF-8
Codec ID : S_TEXT/UTF8
Codec ID/Info : UTF-8 Plain Text
Duration : 57 min 27 s
Bit rate : 77 b/s
Count of elements : 666
Stream size : 32.5 KiB (0%)
Title : Arabic [Full]
Language : Arabic
Default : No
Forced : No

Text #16
ID : 18
Format : UTF-8
Codec ID : S_TEXT/UTF8
Codec ID/Info : UTF-8 Plain Text
Duration : 57 min 27 s
Bit rate : 124 b/s
Count of elements : 666
Stream size : 52.4 KiB (0%)
Title : Hindi [Full]
Language : Hindi
Default : No
Forced : No

Text #17
ID : 19
Format : UTF-8
Codec ID : S_TEXT/UTF8
Codec ID/Info : UTF-8 Plain Text
Duration : 57 min 27 s
Bit rate : 155 b/s
Count of elements : 698
Stream size : 65.2 KiB (0%)
Title : Tamil [Full]
Language : Tamil
Default : No
Forced : No

Text #18
ID : 20
Format : UTF-8
Codec ID : S_TEXT/UTF8
Codec ID/Info : UTF-8 Plain Text
Duration : 57 min 27 s
Bit rate : 133 b/s
Count of elements : 676
Stream size : 56.3 KiB (0%)
Title : Telugu [Full]
Language : Telugu
Default : No
Forced : No

Text #19
ID : 21
Format : UTF-8
Codec ID : S_TEXT/UTF8
Codec ID/Info : UTF-8 Plain Text
Duration : 57 min 27 s
Bit rate : 51 b/s
Count of elements : 661
Stream size : 21.5 KiB (0%)
Title : Indonesian [Full]
Language : Indonesian
Default : No
Forced : No

Text #20
ID : 22
Format : UTF-8
Codec ID : S_TEXT/UTF8
Codec ID/Info : UTF-8 Plain Text
Duration : 57 min 27 s
Bit rate : 124 b/s
Count of elements : 666
Stream size : 52.6 KiB (0%)
Title : Thai [Full]
Language : Thai
Default : No
Forced : No

Text #21
ID : 23
Format : UTF-8
Codec ID : S_TEXT/UTF8
Codec ID/Info : UTF-8 Plain Text
Duration : 57 min 27 s
Bit rate : 57 b/s
Count of elements : 666
Stream size : 24.0 KiB (0%)
Title : Korean [Full]
Language : Korean
Default : No
Forced : No

Text #22
ID : 24
Format : UTF-8
Codec ID : S_TEXT/UTF8
Codec ID/Info : UTF-8 Plain Text
Duration : 57 min 27 s
Bit rate : 45 b/s
Count of elements : 666
Stream size : 19.3 KiB (0%)
Title : 中文 (简体) [Full]
Language : 中文
Default : No
Forced : No

Text #23
ID : 25
Format : UTF-8
Codec ID : S_TEXT/UTF8
Codec ID/Info : UTF-8 Plain Text
Duration : 57 min 27 s
Bit rate : 41 b/s
Count of elements : 666
Stream size : 17.5 KiB (0%)
Title : 中文 (繁体) [Full]
Language : 中文
Default : No
Forced : No


Text #24
ID : 26
Format : UTF-8
Codec ID : S_TEXT/UTF8
Codec ID/Info : UTF-8 Plain Text
Duration : 57 min 11 s
Bit rate : 38 b/s
Count of elements : 645
Stream size : 16.2 KiB (0%)
Title : Japanese [Full]
Language : Japanese
Default : No
Forced : No

Menu
00:00:00.000 : en:Amazon Original
00:00:02.000 : en:Opening Credits
00:01:11.000 : en:Joe receives a job tip at the movie theater
00:03:00.000 : en:Joe makes his way to Lariat
00:06:48.000 : enoc and Don explain Joe\'s trip
00:07:33.000 : en:Joe and the others part ways
00:09:40.000 : en:Juliana demonstrates her aikido technique
00:11:01.000 : enoni tries to talk with Juliana after class
00:11:32.000 : en:Juliana bumps into her sister at the herbalist\'s store
00:13:15.000 : en:Juliana brings the medicine to her mother
00:14:38.000 : en:Frank, Juliana and Ed get drinks at the bar
00:17:33.000 : en:Juliana finds her sister fleeing from the inspectors
00:18:40.000 : en:Juliana watches Trudy\'s mysterious film
00:23:27.000 : en:Joe makes his way across the Greater Nazi Reich
00:24:56.000 : en:Frank offers to take Juliana to the police
00:27:54.000 : en:Juliana leaves her home behind
00:28:23.000 : en:The Nazis explain their plan to the Japanese officials
00:30:51.000 : en:Joe makes an unexpected stop
00:31:32.000 : en:Smith checks on his rebel prisoner
00:33:27.000 : en:An officer stops by Joe\'s truck
00:36:01.000 : en:Juliana tries to catch her bus ride
00:38:42.000 : en:Tagomi meets Baynes at the airport
00:42:01.000 : en:Frank asks his supervisor about the designs he shared
00:43:13.000 : en:Juliana makes a new \"friend\" on the bus
00:45:05.000 : en:Joe inspects the cargo he\'s been transporting
00:47:02.000 : en:Joe tries to pass through the border
00:47:30.000 : en:Frank returns to an empty home
00:47:56.000 : en:Juliana awakens to find her stuff missing
00:49:10.000 : en:Smith notices a lack of torture occurring
00:50:54.000 : en:Frank spies the inspector outside his home
00:51:21.000 : en:Juliana reaches the strange town of Canon City
00:52:00.000 : en:Inspector Kido and his men investigate Frank\'s home
00:53:48.000 : en:Juliana waits for her contact at the diner
00:55:30.000 : en:Joe and Juliana talk as the world continues spinning
00:58:31.000 : en:End Credits

2_副本.jpg

◎译  名 高堡奇人 第二季
◎片  名 The Man in the High Castle Season 2
◎年  代 2016
◎国  家 美国
◎类  别 剧情/科幻/惊悚
◎语  言 英语
◎上映日期 2016-12-16(美国)
◎IMDb评分  7.9/10 from 98449 users
◎IMDb链接  https://www.imdb.com/title/tt1740299/
◎豆瓣评分 8.5/10 from 7773 users
◎豆瓣链接 https://movie.douban.com/subject/26692295/
◎集  数 10
◎片  长 60分钟
◎导  演 丹尼尔·伯希威尔 Daniel Percival
◎主  演 艾莉克莎·黛沃洛斯 Alexa Davalos
      DJ·考尔斯 DJ Qualls
      史蒂夫·拜尔斯 Steve Byers
      阿诺德·陈 Arnold Chun
      贝拉·希思科特 Bella Heathcote
      谢拉赫·霍斯达尔 Chelah Horsdal
      卢克·克莱恩坦克 Luke Kleintank
      奎恩·罗德 Quinn Lord
      考乐姆·吉斯·雷尼 Callum Keith Rennie
      塞巴斯蒂安·罗奇 Sebastian Roché

◎简  介

  当第二季开始时,Juliana Crain决定背叛抵抗运动,让有纳粹密探嫌疑的Joe Blake逃离了太平洋国,她必须面对这个决定所带来的后果。从此以后,Juliana只能像个变色龙一样小心生存,她现在的情况真是糟透了。Joe Blake带着原本应该交给「高城堡里的人」的影片回到德意志帝国,受到了英雄般的欢迎。他开始深陷首都柏林的政治圈,并与当初抛弃他的父亲再次见面。通过父亲,Joe Blake结识了交际花Nicole Becker,也见证了德国上流社会的奢华生活。与此同时,Frank Frink变得越来越激进。他在神秘影片中看见自己被处决的场景,与抵抗运动的纠缠也越来越深。Ed被Frank拖下了水,但Ed有自己的想法和立场,两人的裂痕开始明显。德国和日本之间的政治关系持续紧张,曾经成功从纳粹德国盗取核技术的日本贸易大臣Tagomi开始为自己的行为感到后悔。他在第一季结尾发现了一个怪异的新世界,那很快成为他寻求慰藉的地方。另一方面,纳粹德国党卫队上将John Smith陷入一种难以调和的矛盾:一方面他必须尊重德意志帝国的价值观念,另一方面他不忍看到儿子的病情一天比一天恶化。元首直接向他下达了一条命令,而且绝不接受「任务失败」这个结果。总督察Kido对「高城堡里的人」、神秘影片和Juliana Crain与所有事情之间的关联产生浓厚兴趣。
Video
ID : 1
Format : HEVC
Format/Info : High Efficiency Video Coding
Format profile : Main 10@L5@Main
HDR format : SMPTE ST 2094 App 4, Version 0
Codec ID : V_MPEGH/ISO/HEVC
Duration : 59 min 13 s
Bit rate : 14.4 Mb/s
Width : 3 840 pixels
Height : 2 160 pixels
Display aspect ratio : 16:9
Frame rate mode : Constant
Frame rate : 23.976 (24000/1001) FPS
Standard : NTSC
Color space : YUV
Chroma subsampling : 4:2:0 (Type 2)
Bit depth : 10 bits
Bits/(Pixel*Frame) : 0.073
Stream size : 5.97 GiB (96%)
Default : Yes
Forced : No
Color range : Limited
Color primaries : BT.2020
Transfer characteristics : PQ
Matrix coefficients : BT.2020 non-constant
Mastering display color primaries : Display P3
Mastering display luminance : min: 0.0001 cd/m2, max: 1000 cd/m2
Maximum Content Light Level : 1000 cd/m2
Maximum Frame-Average Light Level : 229 cd/m2

Audio
ID : 2
Format : E-AC-3
Format/Info : Enhanced AC-3
Commercial name : Dolby Digital Plus
Codec ID : A_EAC3
Duration : 59 min 13 s
Bit rate mode : Constant
Bit rate : 640 kb/s
Channel(s) : 6 channels
Channel layout : L R C LFE Ls Rs
Sampling rate : 48.0 kHz
Frame rate : 31.250 FPS (1536 SPF)
Compression mode : Lossy
Stream size : 271 MiB (4%)
Title : English
Language : English
Service kind : Complete Main
Default : Yes
Forced : No

Text #1
ID : 3
Format : UTF-8
Codec ID : S_TEXT/UTF8
Codec ID/Info : UTF-8 Plain Text
Duration : 49 min 15 s
Bit rate : 1 b/s
Count of elements : 30
Stream size : 616 Bytes (0%)
Title : English [Forced]
Language : English
Default : No
Forced : Yes

Text #2
ID : 4
Format : UTF-8
Codec ID : S_TEXT/UTF8
Codec ID/Info : UTF-8 Plain Text
Duration : 56 min 18 s
Bit rate : 56 b/s
Count of elements : 901
Stream size : 23.2 KiB (0%)
Title : English [SDH]
Language : English
Default : No
Forced : No

Text #3
ID : 5
Format : UTF-8
Codec ID : S_TEXT/UTF8
Codec ID/Info : UTF-8 Plain Text
Duration : 54 min 21 s
Bit rate : 53 b/s
Count of elements : 657
Stream size : 21.2 KiB (0%)
Title : Castilian [Full]
Language : Spanish
Default : No
Forced : No

Text #4
ID : 6
Format : UTF-8
Codec ID : S_TEXT/UTF8
Codec ID/Info : UTF-8 Plain Text
Duration : 54 min 21 s
Bit rate : 52 b/s
Count of elements : 656
Stream size : 21.1 KiB (0%)
Title : Spanish [Full]
Language : Spanish
Default : No
Forced : No

Text #5
ID : 7
Format : UTF-8
Codec ID : S_TEXT/UTF8
Codec ID/Info : UTF-8 Plain Text
Duration : 54 min 21 s
Bit rate : 58 b/s
Count of elements : 657
Stream size : 23.3 KiB (0%)
Title : French [Full]
Language : French
Default : No
Forced : No

Text #6
ID : 8
Format : UTF-8
Codec ID : S_TEXT/UTF8
Codec ID/Info : UTF-8 Plain Text
Duration : 54 min 4 s
Bit rate : 52 b/s
Count of elements : 578
Stream size : 21.0 KiB (0%)
Title : German [Full]
Language : German
Default : No
Forced : No

Text #7
ID : 9
Format : UTF-8
Codec ID : S_TEXT/UTF8
Codec ID/Info : UTF-8 Plain Text
Duration : 54 min 21 s
Bit rate : 56 b/s
Count of elements : 656
Stream size : 22.3 KiB (0%)
Title : Italian [Full]
Language : Italian
Default : No
Forced : No

Text #8
ID : 10
Format : UTF-8
Codec ID : S_TEXT/UTF8
Codec ID/Info : UTF-8 Plain Text
Duration : 54 min 21 s
Bit rate : 53 b/s
Count of elements : 657
Stream size : 21.2 KiB (0%)
Title : Brazilian Portuguese [Full]
Language : Portuguese
Default : No
Forced : No

Text #9
ID : 11
Format : UTF-8
Codec ID : S_TEXT/UTF8
Codec ID/Info : UTF-8 Plain Text
Duration : 54 min 21 s
Bit rate : 53 b/s
Count of elements : 653
Stream size : 21.1 KiB (0%)
Title : Polish [Full]
Language : Polish
Default : No
Forced : No

Text #10
ID : 12
Format : UTF-8
Codec ID : S_TEXT/UTF8
Codec ID/Info : UTF-8 Plain Text
Duration : 54 min 21 s
Bit rate : 56 b/s
Count of elements : 657
Stream size : 22.4 KiB (0%)
Title : Turkish [Full]
Language : Turkish
Default : No
Forced : No

Text #11
ID : 13
Format : UTF-8
Codec ID : S_TEXT/UTF8
Codec ID/Info : UTF-8 Plain Text
Duration : 54 min 21 s
Bit rate : 50 b/s
Count of elements : 656
Stream size : 20.2 KiB (0%)
Title : Swedish [Full]
Language : Swedish
Default : No
Forced : No

Text #12
ID : 14
Format : UTF-8
Codec ID : S_TEXT/UTF8
Codec ID/Info : UTF-8 Plain Text
Duration : 54 min 21 s
Bit rate : 54 b/s
Count of elements : 656
Stream size : 21.7 KiB (0%)
Title : Danish [Full]
Language : Danish
Default : No
Forced : No

Text #13
ID : 15
Format : UTF-8
Codec ID : S_TEXT/UTF8
Codec ID/Info : UTF-8 Plain Text
Duration : 54 min 21 s
Bit rate : 52 b/s
Count of elements : 656
Stream size : 20.8 KiB (0%)
Title : Finnish [Full]
Language : Finnish
Default : No
Forced : No

Text #14
ID : 16
Format : UTF-8
Codec ID : S_TEXT/UTF8
Codec ID/Info : UTF-8 Plain Text
Duration : 54 min 21 s
Bit rate : 52 b/s
Count of elements : 652
Stream size : 20.7 KiB (0%)
Title : Dutch [Full]
Language : Dutch
Default : No
Forced : No

Text #15
ID : 17
Format : UTF-8
Codec ID : S_TEXT/UTF8
Codec ID/Info : UTF-8 Plain Text
Duration : 54 min 21 s
Bit rate : 53 b/s
Count of elements : 656
Stream size : 21.3 KiB (0%)
Title : Norwegian (Bokmål) [Full]
Language : Norwegian Bokmal
Default : No
Forced : No

Text #16
ID : 18
Format : UTF-8
Codec ID : S_TEXT/UTF8
Codec ID/Info : UTF-8 Plain Text
Duration : 54 min 21 s
Bit rate : 91 b/s
Count of elements : 658
Stream size : 36.5 KiB (0%)
Title : Russian [Full]
Language : Russian
Default : No
Forced : No

Text #17
ID : 19
Format : UTF-8
Codec ID : S_TEXT/UTF8
Codec ID/Info : UTF-8 Plain Text
Duration : 54 min 21 s
Bit rate : 71 b/s
Count of elements : 661
Stream size : 28.3 KiB (0%)
Title : Hebrew [Full]
Language : Hebrew
Default : No
Forced : No

Text #18
ID : 20
Format : UTF-8
Codec ID : S_TEXT/UTF8
Codec ID/Info : UTF-8 Plain Text
Duration : 54 min 21 s
Bit rate : 83 b/s
Count of elements : 658
Stream size : 33.4 KiB (0%)
Title : Arabic [Full]
Language : Arabic
Default : No
Forced : No

Text #19
ID : 21
Format : UTF-8
Codec ID : S_TEXT/UTF8
Codec ID/Info : UTF-8 Plain Text
Duration : 54 min 21 s
Bit rate : 139 b/s
Count of elements : 658
Stream size : 55.4 KiB (0%)
Title : Hindi [Full]
Language : Hindi
Default : No
Forced : No

Text #20
ID : 22
Format : UTF-8
Codec ID : S_TEXT/UTF8
Codec ID/Info : UTF-8 Plain Text
Duration : 54 min 21 s
Bit rate : 160 b/s
Count of elements : 686
Stream size : 63.9 KiB (0%)
Title : Tamil [Full]
Language : Tamil
Default : No
Forced : No

Text #21
ID : 23
Format : UTF-8
Codec ID : S_TEXT/UTF8
Codec ID/Info : UTF-8 Plain Text
Duration : 54 min 21 s
Bit rate : 144 b/s
Count of elements : 662
Stream size : 57.4 KiB (0%)
Title : Telugu [Full]
Language : Telugu
Default : No
Forced : No

Text #22
ID : 24
Format : UTF-8
Codec ID : S_TEXT/UTF8
Codec ID/Info : UTF-8 Plain Text
Duration : 54 min 21 s
Bit rate : 57 b/s
Count of elements : 653
Stream size : 22.9 KiB (0%)
Title : Indonesian [Full]
Language : Indonesian
Default : No
Forced : No

Text #23
ID : 25
Format : UTF-8
Codec ID : S_TEXT/UTF8
Codec ID/Info : UTF-8 Plain Text
Duration : 54 min 21 s
Bit rate : 129 b/s
Count of elements : 658
Stream size : 51.6 KiB (0%)
Title : Thai [Full]
Language : Thai
Default : No
Forced : No

Text #24
ID : 26
Format : UTF-8
Codec ID : S_TEXT/UTF8
Codec ID/Info : UTF-8 Plain Text
Duration : 54 min 21 s
Bit rate : 61 b/s
Count of elements : 658
Stream size : 24.5 KiB (0%)
Title : Korean [Full]
Language : Korean
Default : No
Forced : No

Text #25
ID : 27
Format : UTF-8
Codec ID : S_TEXT/UTF8
Codec ID/Info : UTF-8 Plain Text
Duration : 54 min 21 s
Bit rate : 50 b/s
Count of elements : 658
Stream size : 20.0 KiB (0%)
Title : 中文 (简体) [Full]
Language : 中文
Default : No
Forced : No

Text #26
ID : 28
Format : UTF-8
Codec ID : S_TEXT/UTF8
Codec ID/Info : UTF-8 Plain Text
Duration : 54 min 21 s
Bit rate : 44 b/s
Count of elements : 658
Stream size : 17.7 KiB (0%)
Title : 中文 (繁体) [Full]
Language : 中文
Default : No
Forced : No


Text #27
ID : 29
Format : UTF-8
Codec ID : S_TEXT/UTF8
Codec ID/Info : UTF-8 Plain Text
Duration : 54 min 4 s
Bit rate : 47 b/s
Count of elements : 651
Stream size : 18.8 KiB (0%)
Title : Japanese [Full]
Language : Japanese
Default : No
Forced : No

Menu
00:00:00.000 : en:Amazon Original
00:00:05.000 : en:Opening Credits
00:01:34.000 : en:The Smiths prepare for Hitler\'s death
00:02:13.000 : en:Tagomi is reminded of his unfortunate past
00:04:43.000 : en:Joe tells his father about Juliana
00:07:40.000 : en:Heusmann is made acting chancellor
00:11:47.000 : en:Joe considers returning home
00:12:44.000 : en:Tagomi attempts to fix his cup
00:13:26.000 : en:Smith confronts Juliana about the Man in the High Castle
00:18:37.000 : en:Juliana wants out
00:19:47.000 : en:Juliana continues to stay close to Helen
00:21:40.000 : en:Oberfuhrer Diels looks for General Onada
00:22:50.000 : en:Juliana and Lucy gossip about Hitler\'s health
00:28:11.000 : en:Smith learns of Diels\' defection
00:31:18.000 : en:Juliana reaches out to the resistance
00:32:11.000 : en:Juliana relays her information to the Resistance
00:36:01.000 : en:Noriyuke tells his father how he met Juliana
00:38:32.000 : en:Arnold passes on Juliana\'s warning to Frank
00:44:11.000 : en:Frank learns the truth about Juliana
00:46:55.000 : en:Tagomi attempts to make amends with his family
00:49:19.000 : en:Joe insists on staying in Berlin
00:50:12.000 : en:Reinhard Heydrich is released
00:55:41.000 : en:Heusmann takes command
00:57:00.000 : en:End Credits

3_副本.jpg

◎译  名 高堡奇人 第三季/高城堡里的人
◎片  名 The Man in the High Castle Season 3
◎年  代 2018
◎产  地 美国
◎类  别 剧情/科幻/惊悚
◎语  言 英语
◎上映日期 2018-10-05(美国)
◎IMDb评分  7.9/10 from 98449 users
◎IMDb链接  https://www.imdb.com/title/tt1740299/
◎豆瓣评分 8.2/10 from 5082 users
◎豆瓣链接 https://movie.douban.com/subject/26948407/
◎集  数 10
◎片  长 60
◎导  演 丹尼尔·伯希威尔 Daniel Percival
◎主  演 艾莉克莎·黛沃洛斯 Alexa Davalos
      卢夫斯·塞维尔 Rufus Sewell
      卢克·克莱恩坦克 Luke Kleintank
      贝拉·希思科特 Bella Heathcote
      田川洋行 Cary-Hiroyuki Tagawa

◎简  介

  自由钟被熔解了,自由女神像被推倒了,但是美国街头反抗纳粹法西斯统治的抵抗运动却越来越活跃,革命的旗帜再次竖起。在第三季中,Juliana Crain前往中立区寻求庇护,但她无法摆脱自己的命运。她意识到自己与贸易大臣Tagomi的命运已经交织在一起,两人必须合作才能破解仅存的那批影片的秘密。与此同时,纳粹德国与日本帝国的紧张关系持续加剧,Joe Blake从柏林回到旧金山执行外交斡旋任务。Joe和Juliana重逢了,两人的关系到了十分关键的转折点。John Smith指挥官受到纳粹高层的重视和欢迎,但北美的政治势力对他步步紧逼,Lincoln Rockwell和J. Edgar Hoover都在密谋对付他。Helen为了保护家人而采取激进手段,但是Thomas之死对这个家庭打击太大,他们根本无法摆脱整件事的阴影。Smith得知一个野心很大的、令人震惊的纳粹新项目正在实施,不仅对他本人有影响,甚至对全球的命运都有重大影响。
Video
ID : 1
Format : AVC
Format/Info : Advanced Video Codec
Format profile : High@L5.1
Format settings : CABAC / 5 Ref Frames
Format settings, CABAC : Yes
Format settings, Reference frames : 5 frames
Codec ID : V_MPEG4/ISO/AVC
Duration : 1 h 10 min
Bit rate : 32.7 Mb/s
Width : 3 840 pixels
Height : 2 160 pixels
Display aspect ratio : 16:9
Frame rate mode : Constant
Frame rate : 23.976 (24000/1001) FPS
Color space : YUV
Chroma subsampling : 4:2:0
Bit depth : 8 bits
Scan type : Progressive
Bits/(Pixel*Frame) : 0.164
Stream size : 16.0 GiB (98%)
Writing library : x264 core 157 r2969 d4099dd
Encoding settings : cabac=1 / ref=5 / deblock=1:-3:-3 / analyse=0x3:0x133 / me=umh / subme=10 / psy=1 / psy_rd=1.00:0.00 / mixed_ref=1 / me_range=48 / chroma_me=1 / trellis=2 / 8x8dct=1 / cqm=0 / deadzone=21,11 / fast_pskip=0 / chroma_qp_offset=-2 / threads=24 / lookahead_threads=4 / sliced_threads=0 / nr=0 / decimate=0 / interlaced=0 / bluray_compat=0 / constrained_intra=0 / bframes=8 / b_pyramid=2 / b_adapt=2 / b_bias=0 / direct=3 / weightb=1 / open_gop=0 / weightp=2 / keyint=250 / keyint_min=23 / scenecut=40 / intra_refresh=0 / rc=crf / mbtree=0 / crf=18.0 / qcomp=0.60 / qpmin=0 / qpmax=69 / qpstep=4 / ip_ratio=1.30 / pb_ratio=1.20 / aq=3:0.80
Language : English
Default : Yes
Forced : No

Audio
ID : 2
Format : E-AC-3
Format/Info : Enhanced AC-3
Commercial name : Dolby Digital Plus
Codec ID : A_EAC3
Duration : 1 h 10 min
Bit rate mode : Constant
Bit rate : 640 kb/s
Channel(s) : 6 channels
Channel layout : L R C LFE Ls Rs
Sampling rate : 48.0 kHz
Frame rate : 31.250 FPS (1536 SPF)
Compression mode : Lossy
Stream size : 321 MiB (2%)
Language : English
Service kind : Complete Main
Default : Yes
Forced : No

Text #1
ID : 3
Format : UTF-8
Codec ID : S_TEXT/UTF8
Codec ID/Info : UTF-8 Plain Text
Duration : 1 h 7 min
Bit rate : 63 b/s
Count of elements : 691
Stream size : 31.5 KiB (0%)
Language : Arabic
Default : No
Forced : No

Text #2
ID : 4
Format : UTF-8
Codec ID : S_TEXT/UTF8
Codec ID/Info : UTF-8 Plain Text
Duration : 1 h 7 min
Bit rate : 38 b/s
Count of elements : 689
Stream size : 19.2 KiB (0%)
Language : 中文
Default : No
Forced : No


Text #3
ID : 5
Format : UTF-8
Codec ID : S_TEXT/UTF8
Codec ID/Info : UTF-8 Plain Text
Duration : 1 h 7 min
Bit rate : 42 b/s
Count of elements : 699
Stream size : 21.1 KiB (0%)
Language : Danish
Default : No
Forced : No

Text #4
ID : 6
Format : UTF-8
Codec ID : S_TEXT/UTF8
Codec ID/Info : UTF-8 Plain Text
Duration : 1 h 7 min
Bit rate : 42 b/s
Count of elements : 571
Stream size : 20.9 KiB (0%)
Language : German
Default : No
Forced : No

Text #5
ID : 7
Format : UTF-8
Codec ID : S_TEXT/UTF8
Codec ID/Info : UTF-8 Plain Text
Duration : 31 min 7 s
Bit rate : 2 b/s
Count of elements : 23
Stream size : 548 Bytes (0%)
Title : Forced
Language : English
Default : Yes
Forced : Yes

Text #6
ID : 8
Format : UTF-8
Codec ID : S_TEXT/UTF8
Codec ID/Info : UTF-8 Plain Text
Duration : 1 h 7 min
Bit rate : 54 b/s
Count of elements : 1034
Stream size : 27.0 KiB (0%)
Title : SDH
Language : English
Default : No
Forced : No

Text #7
ID : 9
Format : UTF-8
Codec ID : S_TEXT/UTF8
Codec ID/Info : UTF-8 Plain Text
Duration : 1 h 7 min
Bit rate : 43 b/s
Count of elements : 688
Stream size : 21.5 KiB (0%)
Title : Latinoamérica
Language : Spanish
Default : No
Forced : No

Text #8
ID : 10
Format : UTF-8
Codec ID : S_TEXT/UTF8
Codec ID/Info : UTF-8 Plain Text
Duration : 1 h 7 min
Bit rate : 42 b/s
Count of elements : 680
Stream size : 21.1 KiB (0%)
Title : España
Language : Spanish
Default : No
Forced : No

Text #9
ID : 11
Format : UTF-8
Codec ID : S_TEXT/UTF8
Codec ID/Info : UTF-8 Plain Text
Duration : 1 h 7 min
Bit rate : 43 b/s
Count of elements : 679
Stream size : 21.2 KiB (0%)
Language : Finnish
Default : No
Forced : No

Text #10
ID : 12
Format : UTF-8
Codec ID : S_TEXT/UTF8
Codec ID/Info : UTF-8 Plain Text
Duration : 1 h 7 min
Bit rate : 45 b/s
Count of elements : 682
Stream size : 22.2 KiB (0%)
Language : French
Default : No
Forced : No

Text #11
ID : 13
Format : UTF-8
Codec ID : S_TEXT/UTF8
Codec ID/Info : UTF-8 Plain Text
Duration : 1 h 7 min
Bit rate : 60 b/s
Count of elements : 691
Stream size : 29.6 KiB (0%)
Language : Hebrew
Default : No
Forced : No

Text #12
ID : 14
Format : UTF-8
Codec ID : S_TEXT/UTF8
Codec ID/Info : UTF-8 Plain Text
Duration : 1 h 7 min
Bit rate : 108 b/s
Count of elements : 690
Stream size : 53.6 KiB (0%)
Language : Hindi
Default : No
Forced : No

Text #13
ID : 15
Format : UTF-8
Codec ID : S_TEXT/UTF8
Codec ID/Info : UTF-8 Plain Text
Duration : 1 h 7 min
Bit rate : 44 b/s
Count of elements : 690
Stream size : 21.8 KiB (0%)
Language : Indonesian
Default : No
Forced : No

Text #14
ID : 16
Format : UTF-8
Codec ID : S_TEXT/UTF8
Codec ID/Info : UTF-8 Plain Text
Duration : 1 h 7 min
Bit rate : 44 b/s
Count of elements : 686
Stream size : 21.7 KiB (0%)
Language : Italian
Default : No
Forced : No

Text #15
ID : 17
Format : UTF-8
Codec ID : S_TEXT/UTF8
Codec ID/Info : UTF-8 Plain Text
Duration : 1 h 7 min
Bit rate : 40 b/s
Count of elements : 692
Stream size : 19.9 KiB (0%)
Language : Japanese
Default : No
Forced : No

Text #16
ID : 18
Format : UTF-8
Codec ID : S_TEXT/UTF8
Codec ID/Info : UTF-8 Plain Text
Duration : 1 h 7 min
Bit rate : 51 b/s
Count of elements : 691
Stream size : 25.6 KiB (0%)
Language : Korean
Default : No
Forced : No

Text #17
ID : 19
Format : UTF-8
Codec ID : S_TEXT/UTF8
Codec ID/Info : UTF-8 Plain Text
Duration : 1 h 7 min
Bit rate : 41 b/s
Count of elements : 687
Stream size : 20.6 KiB (0%)
Language : Norwegian Bokmal
Default : No
Forced : No

Text #18
ID : 20
Format : UTF-8
Codec ID : S_TEXT/UTF8
Codec ID/Info : UTF-8 Plain Text
Duration : 1 h 7 min
Bit rate : 41 b/s
Count of elements : 685
Stream size : 20.3 KiB (0%)
Language : Dutch
Default : No
Forced : No

Text #19
ID : 21
Format : UTF-8
Codec ID : S_TEXT/UTF8
Codec ID/Info : UTF-8 Plain Text
Duration : 1 h 7 min
Bit rate : 40 b/s
Count of elements : 681
Stream size : 19.9 KiB (0%)
Language : Polish
Default : No
Forced : No

Text #20
ID : 22
Format : UTF-8
Codec ID : S_TEXT/UTF8
Codec ID/Info : UTF-8 Plain Text
Duration : 1 h 7 min
Bit rate : 45 b/s
Count of elements : 688
Stream size : 22.2 KiB (0%)
Language : Portuguese
Default : No
Forced : No

Text #21
ID : 23
Format : UTF-8
Codec ID : S_TEXT/UTF8
Codec ID/Info : UTF-8 Plain Text
Duration : 1 h 7 min
Bit rate : 75 b/s
Count of elements : 686
Stream size : 37.1 KiB (0%)
Language : Russian
Default : No
Forced : No

Text #22
ID : 24
Format : UTF-8
Codec ID : S_TEXT/UTF8
Codec ID/Info : UTF-8 Plain Text
Duration : 1 h 7 min
Bit rate : 43 b/s
Count of elements : 686
Stream size : 21.2 KiB (0%)
Language : Swedish
Default : No
Forced : No

Text #23
ID : 25
Format : UTF-8
Codec ID : S_TEXT/UTF8
Codec ID/Info : UTF-8 Plain Text
Duration : 1 h 7 min
Bit rate : 115 b/s
Count of elements : 691
Stream size : 56.8 KiB (0%)
Language : Tamil
Default : No
Forced : No

Text #24
ID : 26
Format : UTF-8
Codec ID : S_TEXT/UTF8
Codec ID/Info : UTF-8 Plain Text
Duration : 1 h 7 min
Bit rate : 119 b/s
Count of elements : 695
Stream size : 58.8 KiB (0%)
Language : Telugu
Default : No
Forced : No

Text #25
ID : 27
Format : UTF-8
Codec ID : S_TEXT/UTF8
Codec ID/Info : UTF-8 Plain Text
Duration : 1 h 7 min
Bit rate : 43 b/s
Count of elements : 688
Stream size : 21.6 KiB (0%)
Language : Turkish
Default : No
Forced : No

Text #26
ID : 28
Format : UTF-8
Codec ID : S_TEXT/UTF8
Codec ID/Info : UTF-8 Plain Text
Duration : 1 h 7 min
Bit rate : 37 b/s
Count of elements : 691
Stream size : 18.7 KiB (0%)
Language : 中文
Default : No
Forced : No


Menu
00:00:00.000 : en:Amazon Original
00:00:05.000 : enreviously On
00:04:08.000 : en:The Resistance persists
00:05:48.000 : en:Opening Credits
00:07:17.000 : en:The Nazi\'s try to extract information
00:08:21.000 : en:The Japanese test their new weapon
00:10:46.000 : en:Juliana needs help finding an address
00:13:06.000 : en:Trudy is getting anxious
00:14:02.000 : en:Obergruppenführer returns home
00:15:07.000 : en:Juliana checks on Trudy
00:17:21.000 : en:Helen is still mourning over Thomas
00:19:14.000 : en:Joe does what he must to have a heart of steel
00:24:19.000 : en:Hawthorne has a revelation
00:27:54.000 : en:Juliana realizes they\'re no longer safe
00:31:51.000 : en:Inspector Kido hires a new Sergeant
00:35:12.000 : en:Joe returns home to the US
00:37:09.000 : en:Billy Turner gets a new staff member to head up propaganda
00:39:32.000 : en:Juliana gets to know Wyatt
00:47:05.000 : en:Juliana and Trudy flee
00:48:15.000 : en:Nicole and Joe reunite
00:52:20.000 : en:The Smith family copes with losing Thomas
00:55:20.000 : en:The Smith\'s celebrate the life and sacrifice of Thomas
00:59:29.000 : en:The Nazi Party honors Thomas\' sacrifice
01:04:10.000 : en:Tagomi gets an unexpected visitor
01:05:47.000 : en:Raeder delivers Joe\'s new credentials
01:07:48.000 : en:End Credits

4_副本.jpg

◎译  名 高堡奇人 第四季 / 高城堡里的人
◎片  名 The Man in the High Castle Season 4
◎年  代 2019
◎产  地 美国
◎类  别 剧情 / 科幻 / 惊悚
◎语  言 英语
◎上映日期 2019-11-15(美国)
◎IMDb评分  7.9/10 from 98449 users
◎IMDb链接  https://www.imdb.com/title/tt1740299/
◎豆瓣评分 7.3/10 from 4096 users
◎豆瓣链接 https://movie.douban.com/subject/30280217/
◎集  数 10
◎编  剧 弗兰克·斯伯特尼 Frank Spotnitz
◎主  演 艾莉克莎·黛沃洛斯 Alexa Davalos
        乔尔·德·拉·冯特 Joel de la Fuente
        卢夫斯·塞维尔 Rufus Sewell
        阿诺德·陈 Arnold Chun
        埃里克·兰格 Eric Lange
        艾伦·坡尔 Aaron Pearl
        格拉西·施耶 Gracyn Shinyei
        丁瑞奇 Rich Ting
        杰娜·查彭蒂埃 Genea Charpentier


◎简  介  


  Amazon科幻剧集《高堡奇人》第4季,也是最后一季了,各种火与血的壮烈、大场面,“世界上有很少数的东西,是值得为其去死的”。能否打败纳粹?
  讲述假如纳粹德国和日本天皇打赢了二战,统治了世界,如今“反抗组织将崛起,迎来战争和革命”。11月15日上线。
Video
ID : 1
Format : AVC
Format/Info : Advanced Video Codec
Format profile : High@L5.1
Format settings : CABAC / 5 Ref Frames
Format settings, CABAC : Yes
Format settings, Reference frames : 5 frames
Codec ID : V_MPEG4/ISO/AVC
Duration : 1 h 0 min
Bit rate : 39.7 Mb/s
Width : 3 840 pixels
Height : 2 160 pixels
Display aspect ratio : 16:9
Frame rate mode : Constant
Frame rate : 23.976 (24000/1001) FPS
Color space : YUV
Chroma subsampling : 4:2:0
Bit depth : 8 bits
Scan type : Progressive
Bits/(Pixel*Frame) : 0.200
Stream size : 16.7 GiB (98%)
Writing library : x264 core 157 r2969 d4099dd
Encoding settings : cabac=1 / ref=5 / deblock=1:-3:-3 / analyse=0x3:0x133 / me=umh / subme=10 / psy=1 / psy_rd=1.00:0.00 / mixed_ref=1 / me_range=48 / chroma_me=1 / trellis=2 / 8x8dct=1 / cqm=0 / deadzone=21,11 / fast_pskip=0 / chroma_qp_offset=-2 / threads=24 / lookahead_threads=4 / sliced_threads=0 / nr=0 / decimate=0 / interlaced=0 / bluray_compat=0 / constrained_intra=0 / bframes=8 / b_pyramid=2 / b_adapt=2 / b_bias=0 / direct=3 / weightb=1 / open_gop=0 / weightp=2 / keyint=250 / keyint_min=23 / scenecut=40 / intra_refresh=0 / rc=crf / mbtree=0 / crf=18.0 / qcomp=0.60 / qpmin=0 / qpmax=69 / qpstep=4 / ip_ratio=1.30 / pb_ratio=1.20 / aq=3:0.80
Language : English
Default : Yes
Forced : No

Audio
ID : 2
Format : E-AC-3
Format/Info : Enhanced AC-3
Commercial name : Dolby Digital Plus
Codec ID : A_EAC3
Duration : 1 h 0 min
Bit rate mode : Constant
Bit rate : 640 kb/s
Channel(s) : 6 channels
Channel layout : L R C LFE Ls Rs
Sampling rate : 48.0 kHz
Frame rate : 31.250 FPS (1536 SPF)
Compression mode : Lossy
Stream size : 276 MiB (2%)
Language : English
Service kind : Complete Main
Default : Yes
Forced : No

Text #1
ID : 3
Format : UTF-8
Codec ID : S_TEXT/UTF8
Codec ID/Info : UTF-8 Plain Text
Duration : 56 min 52 s
Bit rate : 96 b/s
Count of elements : 722
Stream size : 40.4 KiB (0%)
Language : Arabic
Default : No
Forced : No

Text #2
ID : 4
Format : UTF-8
Codec ID : S_TEXT/UTF8
Codec ID/Info : UTF-8 Plain Text
Duration : 56 min 52 s
Bit rate : 57 b/s
Count of elements : 712
Stream size : 23.9 KiB (0%)
Language : Danish
Default : No
Forced : No

Text #3
ID : 5
Format : UTF-8
Codec ID : S_TEXT/UTF8
Codec ID/Info : UTF-8 Plain Text
Duration : 56 min 53 s
Bit rate : 56 b/s
Count of elements : 645
Stream size : 23.3 KiB (0%)
Language : German
Default : No
Forced : No

Text #4
ID : 6
Format : UTF-8
Codec ID : S_TEXT/UTF8
Codec ID/Info : UTF-8 Plain Text
Duration : 19 min 38 s
Bit rate : 3 b/s
Count of elements : 20
Stream size : 588 Bytes (0%)
Title : Forced
Language : English
Default : Yes
Forced : Yes

Text #5
ID : 7
Format : UTF-8
Codec ID : S_TEXT/UTF8
Codec ID/Info : UTF-8 Plain Text
Duration : 57 min 40 s
Bit rate : 66 b/s
Count of elements : 993
Stream size : 28.0 KiB (0%)
Title : SDH
Language : English
Default : No
Forced : No

Text #6
ID : 8
Format : UTF-8
Codec ID : S_TEXT/UTF8
Codec ID/Info : UTF-8 Plain Text
Duration : 56 min 52 s
Bit rate : 60 b/s
Count of elements : 716
Stream size : 25.2 KiB (0%)
Title : Latinoamérica
Language : Spanish
Default : No
Forced : No

Text #7
ID : 9
Format : UTF-8
Codec ID : S_TEXT/UTF8
Codec ID/Info : UTF-8 Plain Text
Duration : 56 min 52 s
Bit rate : 60 b/s
Count of elements : 717
Stream size : 25.3 KiB (0%)
Title : España
Language : Spanish
Default : No
Forced : No

Text #8
ID : 10
Format : UTF-8
Codec ID : S_TEXT/UTF8
Codec ID/Info : UTF-8 Plain Text
Duration : 56 min 52 s
Bit rate : 55 b/s
Count of elements : 720
Stream size : 23.0 KiB (0%)
Language : Finnish
Default : No
Forced : No

Text #9
ID : 11
Format : UTF-8
Codec ID : S_TEXT/UTF8
Codec ID/Info : UTF-8 Plain Text
Duration : 56 min 52 s
Bit rate : 62 b/s
Count of elements : 718
Stream size : 26.1 KiB (0%)
Language : French
Default : No
Forced : No

Text #10
ID : 12
Format : UTF-8
Codec ID : S_TEXT/UTF8
Codec ID/Info : UTF-8 Plain Text
Duration : 56 min 52 s
Bit rate : 90 b/s
Count of elements : 721
Stream size : 37.6 KiB (0%)
Language : Hebrew
Default : No
Forced : No

Text #11
ID : 13
Format : UTF-8
Codec ID : S_TEXT/UTF8
Codec ID/Info : UTF-8 Plain Text
Duration : 56 min 52 s
Bit rate : 154 b/s
Count of elements : 723
Stream size : 64.4 KiB (0%)
Language : Hindi
Default : No
Forced : No

Text #12
ID : 14
Format : UTF-8
Codec ID : S_TEXT/UTF8
Codec ID/Info : UTF-8 Plain Text
Duration : 56 min 52 s
Bit rate : 55 b/s
Count of elements : 721
Stream size : 23.1 KiB (0%)
Language : Indonesian
Default : No
Forced : No

Text #13
ID : 15
Format : UTF-8
Codec ID : S_TEXT/UTF8
Codec ID/Info : UTF-8 Plain Text
Duration : 56 min 52 s
Bit rate : 61 b/s
Count of elements : 714
Stream size : 25.6 KiB (0%)
Language : Italian
Default : No
Forced : No

Text #14
ID : 16
Format : UTF-8
Codec ID : S_TEXT/UTF8
Codec ID/Info : UTF-8 Plain Text
Duration : 56 min 53 s
Bit rate : 50 b/s
Count of elements : 697
Stream size : 21.1 KiB (0%)
Language : Japanese
Default : No
Forced : No

Text #15
ID : 17
Format : UTF-8
Codec ID : S_TEXT/UTF8
Codec ID/Info : UTF-8 Plain Text
Duration : 56 min 52 s
Bit rate : 66 b/s
Count of elements : 723
Stream size : 27.8 KiB (0%)
Language : Korean
Default : No
Forced : No

Text #16
ID : 18
Format : UTF-8
Codec ID : S_TEXT/UTF8
Codec ID/Info : UTF-8 Plain Text
Duration : 56 min 52 s
Bit rate : 57 b/s
Count of elements : 720
Stream size : 24.0 KiB (0%)
Language : Norwegian Bokmal
Default : No
Forced : No

Text #17
ID : 19
Format : UTF-8
Codec ID : S_TEXT/UTF8
Codec ID/Info : UTF-8 Plain Text
Duration : 56 min 52 s
Bit rate : 54 b/s
Count of elements : 703
Stream size : 22.8 KiB (0%)
Language : Dutch
Default : No
Forced : No

Text #18
ID : 20
Format : UTF-8
Codec ID : S_TEXT/UTF8
Codec ID/Info : UTF-8 Plain Text
Duration : 56 min 52 s
Bit rate : 55 b/s
Count of elements : 715
Stream size : 23.3 KiB (0%)
Language : Polish
Default : No
Forced : No

Text #19
ID : 21
Format : UTF-8
Codec ID : S_TEXT/UTF8
Codec ID/Info : UTF-8 Plain Text
Duration : 56 min 52 s
Bit rate : 56 b/s
Count of elements : 715
Stream size : 23.6 KiB (0%)
Language : Portuguese
Default : No
Forced : No

Text #20
ID : 22
Format : UTF-8
Codec ID : S_TEXT/UTF8
Codec ID/Info : UTF-8 Plain Text
Duration : 56 min 52 s
Bit rate : 102 b/s
Count of elements : 723
Stream size : 42.5 KiB (0%)
Language : Russian
Default : No
Forced : No

Text #21
ID : 23
Format : UTF-8
Codec ID : S_TEXT/UTF8
Codec ID/Info : UTF-8 Plain Text
Duration : 56 min 52 s
Bit rate : 59 b/s
Count of elements : 720
Stream size : 24.7 KiB (0%)
Language : Swedish
Default : No
Forced : No

Text #22
ID : 24
Format : UTF-8
Codec ID : S_TEXT/UTF8
Codec ID/Info : UTF-8 Plain Text
Duration : 56 min 52 s
Bit rate : 183 b/s
Count of elements : 723
Stream size : 76.5 KiB (0%)
Language : Tamil
Default : No
Forced : No

Text #23
ID : 25
Format : UTF-8
Codec ID : S_TEXT/UTF8
Codec ID/Info : UTF-8 Plain Text
Duration : 56 min 52 s
Bit rate : 160 b/s
Count of elements : 723
Stream size : 66.8 KiB (0%)
Language : Telugu
Default : No
Forced : No

Text #24
ID : 26
Format : UTF-8
Codec ID : S_TEXT/UTF8
Codec ID/Info : UTF-8 Plain Text
Duration : 56 min 52 s
Bit rate : 146 b/s
Count of elements : 723
Stream size : 61.0 KiB (0%)
Language : Thai
Default : No
Forced : No

Text #25
ID : 27
Format : UTF-8
Codec ID : S_TEXT/UTF8
Codec ID/Info : UTF-8 Plain Text
Duration : 56 min 52 s
Bit rate : 55 b/s
Count of elements : 720
Stream size : 23.0 KiB (0%)
Language : Turkish
Default : No
Forced : No

Text #26
ID : 28
Format : UTF-8
Codec ID : S_TEXT/UTF8
Codec ID/Info : UTF-8 Plain Text
Duration : 56 min 52 s
Bit rate : 55 b/s
Count of elements : 723
Stream size : 23.3 KiB (0%)
Title : 中文(简体)
Language : Chinese
Default : No
Forced : No


Text #27
ID : 29
Format : UTF-8
Codec ID : S_TEXT/UTF8
Codec ID/Info : UTF-8 Plain Text
Duration : 56 min 52 s
Bit rate : 50 b/s
Count of elements : 723
Stream size : 21.0 KiB (0%)
Title : 中文(繁体)
Language : Chinese
Default : No
Forced : No

Menu
00:00:00.000 : en:Amazon Original
00:00:05.000 : en:A secret meeting of the BCR
00:05:08.000 : en:Opening Credits
00:06:20.000 : en:Expanding to other worlds
00:12:02.000 : en:The value of a single life
00:20:15.000 : en:The need for valuable allies
00:22:32.000 : en:A meeting with an unexpected guest
00:30:03.000 : enife back in the Reich
00:39:57.000 : en:No mistakes
00:41:57.000 : enreparing for the party
00:45:40.000 : en:The realities of PTSD
00:47:48.000 : en:Robert is a man of elevated status
00:51:06.000 : enreaming of a better life
00:54:38.000 : en:The truth isn\'t always easy
00:57:06.000 : en:Someone\'s always watching
00:58:07.000 : en:End Credits


下载地址:

第一季
游客,如果您要查看本帖隐藏内容请回复


第二季

游客,如果您要查看本帖隐藏内容请回复


第三季

游客,如果您要查看本帖隐藏内容请回复

游客,如果您要查看本帖隐藏内容请回复

游客,如果您要查看本帖隐藏内容请回复


第四季

游客,如果您要查看本帖隐藏内容请回复

游客,如果您要查看本帖隐藏内容请回复

游客,如果您要查看本帖隐藏内容请回复



以下为英语无中字版本

第一季

游客,如果您要查看本帖隐藏内容请回复

游客,如果您要查看本帖隐藏内容请回复


第二季

游客,如果您要查看本帖隐藏内容请回复

游客,如果您要查看本帖隐藏内容请回复




.

上一篇:素描簿 (简繁中字)/Sketchbook(2022)/第一季全6集/4K高清版本下载
下一篇:伟大的密码(简繁中字)(2022)/第一.二季全打包/4K高清版本下载
回复

使用道具 举报

0

主题

1365

帖子

3945

积分

4K家园VIP

Rank: 9Rank: 9Rank: 9

积分
3945
发表于 7 天前 来自手机 | 显示全部楼层
都不知道说的啥
回复 支持 反对

使用道具 举报

0

主题

8229

帖子

1万

积分

4K家园VIP

Rank: 9Rank: 9Rank: 9

积分
18818
发表于 7 天前 | 显示全部楼层
太好啦&萬分感謝版主的無私發佈分享%
回复 支持 反对

使用道具 举报

3

主题

1465

帖子

4249

积分

4K家园VIP

Rank: 9Rank: 9Rank: 9

积分
4249
发表于 7 天前 | 显示全部楼层
元芳你怎么看?
回复 支持 反对

使用道具 举报

3

主题

1202

帖子

3620

积分

4K家园VIP

Rank: 9Rank: 9Rank: 9

积分
3620
发表于 7 天前 | 显示全部楼层
支持,楼下的跟上哈~
回复 支持 反对

使用道具 举报

47

主题

1474

帖子

4216

积分

4K家园VIP

Rank: 9Rank: 9Rank: 9

积分
4216
发表于 7 天前 | 显示全部楼层
我擦!我要沙发!
回复 支持 反对

使用道具 举报

0

主题

3

帖子

12

积分

新手上路

Rank: 1

积分
12
发表于 7 天前 | 显示全部楼层
FFFFFFFFFFFFFFFFFFFFF
回复 支持 反对

使用道具 举报

2

主题

1345

帖子

4059

积分

4K家园VIP

Rank: 9Rank: 9Rank: 9

积分
4059
发表于 7 天前 | 显示全部楼层
额.....这个可以有
回复 支持 反对

使用道具 举报

0

主题

2

帖子

9

积分

新手上路

Rank: 1

积分
9
发表于 6 天前 | 显示全部楼层
谢谢楼主,好人一生平安。
回复 支持 反对

使用道具 举报

0

主题

12

帖子

866

积分

4K家园VIP

Rank: 9Rank: 9Rank: 9

积分
866
发表于 6 天前 | 显示全部楼层
非常不错,我来看看
回复 支持 反对

使用道具 举报

您需要登录后才可以回帖 登录 | 立即注册

本版积分规则

精彩图文
Archiver|手机版|TAG|Sitemap|新帖|专题|联系我们:邮箱: 4kjia.com@gmail.com   

4k家园   ©2019