[4K电影] 爱的怪物论 / Monstrous (2022) 4k高清版本下载

[复制链接]

2325

主题

2474

帖子

1万

积分

超级版主

Rank: 8Rank: 8

积分
17918
 楼主| 发表于 2022-5-13 17:04:30 | 显示全部楼层 |阅读模式

QQ图片20220513164312_副本.png

◎译  名 爱的怪物论 / 恶鬼无情
◎片  名 Monstrous
◎年  代 2022
◎产  地 美国
◎类  别 悬疑 / 惊悚
◎语  言 英语
◎上映日期 2022-03-12(FrightFest Glasgow)
◎IMDb评分  6.4/10 from 77 users
◎IMDb链接  https://www.imdb.com/title/tt4624366/
◎豆瓣评分 0/10 from 0 users
◎豆瓣链接 https://movie.douban.com/subject/35594791/
◎导  演 克里斯·赛弗森 Chris Sivertson
◎演  员 克里斯蒂娜·里奇 Christina Ricci
       桑蒂诺·巴纳德 Santino Barnard
       考林·加普 Colleen Camp
       卢·坦普尔 Lew Temple
       卡罗·安妮·瓦特斯 Carol Anne Watts
       尼克·瓦莱隆加 Nick Vallelonga
       雷切尔·埃德洛 Rachael Edlow
       克里斯?穆利纳克斯 Chris Mullinax
       达林·库珀 Darin Cooper



◎简  介


  《去死吧!啦啦队》美国导演克里斯席维森重返金马奇幻影展的新作《爱的怪物论》,邀来《阿达一族》超酷女孩「星期三」克莉丝汀蕾琪领衔主演,当年鬼灵精怪的少女成了饱受风霜的单亲妈妈,带着儿子远赴边陲小镇重新开始,原以为新生活就要展开,没想到这次不仅要面对自己的心魔,还要挺身抵抗真正的「怪物」。视频巧妙致敬《迷魂记》与《剃刀边缘》,更被美国影评誉为对怪物类型电影做出全新的演绎。

Video
ID : 1
Format : HEVC
Format/Info : High Efficiency Video Coding
Format profile : Main 10@L5@High
Codec ID : V_MPEGH/ISO/HEVC
Duration : 1 h 28 min
Bit rate : 11.9 Mb/s
Width : 3 836 pixels
Height : 1 600 pixels
Display aspect ratio : 2.40:1
Original display aspect ratio : 2.40:1
Frame rate mode : Constant
Frame rate : 23.976 FPS
Color space : YUV
Chroma subsampling : 4:2:0
Bit depth : 10 bits
Bits/(Pixel*Frame) : 0.081
Stream size : 7.38 GiB (97%)
Default : Yes
Forced : No
Color range : Limited
Color primaries : BT.709
Transfer characteristics : BT.709
Matrix coefficients : BT.709

Audio
ID : 2
Format : AC-3
Format/Info : Audio Coding 3
Commercial name : Dolby Digital
Codec ID : A_AC3
Duration : 1 h 28 min
Bit rate mode : Constant
Bit rate : 384 kb/s
Channel(s) : 6 channels
Channel layout : L R C LFE Ls Rs
Sampling rate : 48.0 kHz
Frame rate : 31.250 FPS (1536 SPF)
Compression mode : Lossy
Stream size : 243 MiB (3%)
Language : English
Service kind : Complete Main
Default : Yes
Forced : No

Text
ID : 3
Format : UTF-8
Codec ID : S_TEXT/UTF8
Codec ID/Info : UTF-8 Plain Text
Duration : 1 h 23 min
Bit rate : 39 b/s
Count of elements : 972
Stream size : 23.9 KiB (0%)
Language : English
Default : Yes
Forced : No


资源速度为零或资源敏感被和谐时,推荐使用qBittorrent等下载软件,有条件的推荐115更好的下载软件!

下载地址:


游客,如果您要查看本帖隐藏内容请回复




.



上一篇:加州公路巡警(内封简繁中字)/CHIPS (2017) 4k高清版本下载
下一篇:球鞋灰姑娘(简繁中字)/Sneakerella (2022) 4k高清版本下载
回复

使用道具 举报

3

主题

1345

帖子

4053

积分

4K家园VIP

Rank: 9Rank: 9Rank: 9

积分
4053
发表于 2022-5-13 17:04:33 | 显示全部楼层
什么东西啊
回复 支持 反对

使用道具 举报

1

主题

1374

帖子

4136

积分

4K家园VIP

Rank: 9Rank: 9Rank: 9

积分
4136
发表于 2022-5-13 17:22:36 来自手机 | 显示全部楼层
顶起出售广告位
回复 支持 反对

使用道具 举报

55

主题

1616

帖子

4664

积分

4K家园VIP

Rank: 9Rank: 9Rank: 9

积分
4664
发表于 2022-5-13 21:14:19 来自手机 | 显示全部楼层
感谢推荐,确实不错
回复 支持 反对

使用道具 举报

0

主题

1732

帖子

4804

积分

4K家园VIP

Rank: 9Rank: 9Rank: 9

积分
4804
发表于 2022-5-13 21:34:15 | 显示全部楼层
垃圾内容,路过为证。
回复 支持 反对

使用道具 举报

53

主题

1251

帖子

3821

积分

4K家园VIP

Rank: 9Rank: 9Rank: 9

积分
3821
发表于 2022-5-13 23:17:22 来自手机 | 显示全部楼层
没人回帖。。。我来个吧
回复 支持 反对

使用道具 举报

0

主题

58

帖子

1088

积分

注册会员

Rank: 2

积分
1088
发表于 2022-5-15 10:17:15 | 显示全部楼层
谢谢谢谢谢谢谢
回复 支持 反对

使用道具 举报

您需要登录后才可以回帖 登录 | 立即注册

本版积分规则

精彩图文
Archiver|手机版|TAG|Sitemap|新帖|专题|联系我们:邮箱: 4kjia.com@gmail.com   

4k家园   ©2019