伟大的密码(简繁中字)(2022)/第一.二季全打包/4K高清版本下载

[复制链接]

126

主题

145

帖子

1412

积分

版主

Rank: 7Rank: 7Rank: 7

积分
1412
 楼主| 发表于 7 天前 | 显示全部楼层 |阅读模式

p2612140992_副本.jpg

◎译  名 伟大的密码/超越巅峰
◎片  名 Greatness Code
◎年  代 2020
◎产  地 美国
◎类  别 纪录片
◎语  言 英语
◎上映日期 2020-07-10(美国)
◎IMDb评分  4.4/10 from 332 users
◎IMDb链接  https://www.imdb.com/title/tt12615492/
◎豆瓣评分 6.5/10 from 145 users
◎豆瓣链接 https://douban.com/subject/35124468/
◎集  数 7
◎主  演 尤塞恩·博尔特 Usain Bolt
       汤姆·布拉迪 Tom Brady
       勒布朗·詹姆斯 LeBron James
       阿莱克斯·摩根 Alex Morgan
       凯利·斯拉特 Kelly Slater
       肖恩·怀特 Shaun White


◎简  介


  主角为7名知名运动员勒布朗·詹姆斯、汤姆·布拉迪、亚历克斯·摩根、尤塞恩·博尔特、肖恩·怀特、凯蒂·莱德基和Kelly Slater,讲述他们不为人知的背后故事,聚焦其职业生涯中的一个关键时刻。
Video
ID : 1
Format : HEVC
Format/Info : High Efficiency Video Coding
Format profile : Main 10@L5@High
HDR format : SMPTE ST 2086, HDR10 compatible
Codec ID : V_MPEGH/ISO/HEVC
Duration : 7 min 40 s
Bit rate : 25.1 Mb/s
Width : 3 840 pixels
Height : 2 160 pixels
Display aspect ratio : 16:9
Frame rate mode : Constant
Frame rate : 23.976 (24000/1001) FPS
Color space : YUV
Chroma subsampling : 4:2:0 (Type 2)
Bit depth : 10 bits
Bits/(Pixel*Frame) : 0.126
Stream size : 1.34 GiB (97%)
Language : English
Default : Yes
Forced : No
Color range : Limited
Color primaries : BT.2020
Transfer characteristics : PQ
Matrix coefficients : BT.2020 non-constant
Mastering display color primaries : Display P3
Mastering display luminance : min: 0.0050 cd/m2, max: 1000 cd/m2
Maximum Content Light Level : 1942 cd/m2
Maximum Frame-Average Light Level : 486 cd/m2

Audio
ID : 2
Format : E-AC-3 JOC
Format/Info : Enhanced AC-3 with Joint Object Coding
Commercial name : Dolby Digital Plus with Dolby Atmos
Codec ID : A_EAC3
Duration : 7 min 40 s
Bit rate mode : Constant
Bit rate : 768 kb/s
Channel(s) : 6 channels
Channel layout : L R C LFE Ls Rs
Sampling rate : 48.0 kHz
Frame rate : 31.250 FPS (1536 SPF)
Compression mode : Lossy
Stream size : 42.2 MiB (3%)
Language : English
Service kind : Complete Main
Default : Yes
Forced : No
Complexity index : 16
Number of dynamic objects : 15
Bed channel count : 1 channel
Bed channel configuration : LFE

Text #1
ID : 3
Format : UTF-8
Codec ID : S_TEXT/UTF8
Codec ID/Info : UTF-8 Plain Text
Duration : 7 min 19 s
Bit rate : 135 b/s
Count of elements : 140
Stream size : 7.27 KiB (0%)
Title : العربية
Language : Arabic
Default : No
Forced : No

Text #2
ID : 4
Format : UTF-8
Codec ID : S_TEXT/UTF8
Codec ID/Info : UTF-8 Plain Text
Duration : 7 min 19 s
Bit rate : 132 b/s
Count of elements : 136
Stream size : 7.11 KiB (0%)
Title : български
Language : Bulgarian
Default : No
Forced : No

Text #3
ID : 5
Format : UTF-8
Codec ID : S_TEXT/UTF8
Codec ID/Info : UTF-8 Plain Text
Duration : 7 min 19 s
Bit rate : 87 b/s
Count of elements : 135
Stream size : 4.70 KiB (0%)
Title : Čeština
Language : Czech
Default : No
Forced : No

Text #4
ID : 6
Format : UTF-8
Codec ID : S_TEXT/UTF8
Codec ID/Info : UTF-8 Plain Text
Duration : 7 min 19 s
Bit rate : 89 b/s
Count of elements : 120
Stream size : 4.78 KiB (0%)
Title : dansk
Language : Danish
Default : No
Forced : No

Text #5
ID : 7
Format : UTF-8
Codec ID : S_TEXT/UTF8
Codec ID/Info : UTF-8 Plain Text
Duration : 7 min 19 s
Bit rate : 82 b/s
Count of elements : 129
Stream size : 4.45 KiB (0%)
Title : Deutsch
Language : German
Default : No
Forced : No

Text #6
ID : 8
Format : UTF-8
Codec ID : S_TEXT/UTF8
Codec ID/Info : UTF-8 Plain Text
Duration : 7 min 19 s
Bit rate : 153 b/s
Count of elements : 139
Stream size : 8.22 KiB (0%)
Title : Ελληνικά
Language : Greek
Default : No
Forced : No

Text #7
ID : 9
Format : UTF-8
Codec ID : S_TEXT/UTF8
Codec ID/Info : UTF-8 Plain Text
Duration : 6 min 39 s
Bit rate : 110 b/s
Count of elements : 123
Stream size : 5.39 KiB (0%)
Title : English (SDH)
Language : English
Default : No
Forced : No

Text #8
ID : 10
Format : UTF-8
Codec ID : S_TEXT/UTF8
Codec ID/Info : UTF-8 Plain Text
Duration : 6 min 39 s
Bit rate : 104 b/s
Count of elements : 121
Stream size : 5.09 KiB (0%)
Title : English
Language : English
Default : No
Forced : No

Text #9
ID : 11
Format : UTF-8
Codec ID : S_TEXT/UTF8
Codec ID/Info : UTF-8 Plain Text
Duration : 7 min 19 s
Bit rate : 88 b/s
Count of elements : 131
Stream size : 4.76 KiB (0%)
Title : Español (España)
Language : Spanish
Default : No
Forced : No

Text #10
ID : 12
Format : UTF-8
Codec ID : S_TEXT/UTF8
Codec ID/Info : UTF-8 Plain Text
Duration : 7 min 19 s
Bit rate : 84 b/s
Count of elements : 138
Stream size : 4.51 KiB (0%)
Title : Español (Latinoamérica)
Language : Spanish
Default : No
Forced : No

Text #11
ID : 13
Format : UTF-8
Codec ID : S_TEXT/UTF8
Codec ID/Info : UTF-8 Plain Text
Duration : 7 min 19 s
Bit rate : 80 b/s
Count of elements : 130
Stream size : 4.34 KiB (0%)
Title : eesti
Language : Estonian
Default : No
Forced : No

Text #12
ID : 14
Format : UTF-8
Codec ID : S_TEXT/UTF8
Codec ID/Info : UTF-8 Plain Text
Duration : 7 min 19 s
Bit rate : 74 b/s
Count of elements : 134
Stream size : 4.00 KiB (0%)
Title : Suomi
Language : Finnish
Default : No
Forced : No

Text #13
ID : 15
Format : UTF-8
Codec ID : S_TEXT/UTF8
Codec ID/Info : UTF-8 Plain Text
Duration : 7 min 19 s
Bit rate : 86 b/s
Count of elements : 137
Stream size : 4.66 KiB (0%)
Title : Français (France)
Language : French
Default : No
Forced : No

Text #14
ID : 16
Format : UTF-8
Codec ID : S_TEXT/UTF8
Codec ID/Info : UTF-8 Plain Text
Duration : 7 min 19 s
Bit rate : 86 b/s
Count of elements : 137
Stream size : 4.64 KiB (0%)
Title : Français (Canada)
Language : French
Default : No
Forced : No

Text #15
ID : 17
Format : UTF-8
Codec ID : S_TEXT/UTF8
Codec ID/Info : UTF-8 Plain Text
Duration : 7 min 19 s
Bit rate : 133 b/s
Count of elements : 141
Stream size : 7.14 KiB (0%)
Title : עברית
Language : Hebrew
Default : No
Forced : No

Text #16
ID : 18
Format : UTF-8
Codec ID : S_TEXT/UTF8
Codec ID/Info : UTF-8 Plain Text
Duration : 7 min 19 s
Bit rate : 250 b/s
Count of elements : 140
Stream size : 13.5 KiB (0%)
Title : हिन्दी
Language : Hindi
Default : No
Forced : No

Text #17
ID : 19
Format : UTF-8
Codec ID : S_TEXT/UTF8
Codec ID/Info : UTF-8 Plain Text
Duration : 7 min 19 s
Bit rate : 97 b/s
Count of elements : 129
Stream size : 5.22 KiB (0%)
Title : magyar
Language : Hungarian
Default : No
Forced : No

Text #18
ID : 20
Format : UTF-8
Codec ID : S_TEXT/UTF8
Codec ID/Info : UTF-8 Plain Text
Duration : 7 min 19 s
Bit rate : 91 b/s
Count of elements : 135
Stream size : 4.92 KiB (0%)
Title : Bahasa Indonesia
Language : Indonesian
Default : No
Forced : No

Text #19
ID : 21
Format : UTF-8
Codec ID : S_TEXT/UTF8
Codec ID/Info : UTF-8 Plain Text
Duration : 7 min 19 s
Bit rate : 90 b/s
Count of elements : 138
Stream size : 4.84 KiB (0%)
Title : Italiano
Language : Italian
Default : No
Forced : No

Text #20
ID : 22
Format : UTF-8
Codec ID : S_TEXT/UTF8
Codec ID/Info : UTF-8 Plain Text
Duration : 7 min 19 s
Bit rate : 77 b/s
Count of elements : 120
Stream size : 4.16 KiB (0%)
Title : 日本語
Language : Japanese
Default : No
Forced : No

Text #21
ID : 23
Format : UTF-8
Codec ID : S_TEXT/UTF8
Codec ID/Info : UTF-8 Plain Text
Duration : 7 min 19 s
Bit rate : 84 b/s
Count of elements : 126
Stream size : 4.55 KiB (0%)
Title : lietuvių
Language : Lithuanian
Default : No
Forced : No

Text #22
ID : 24
Format : UTF-8
Codec ID : S_TEXT/UTF8
Codec ID/Info : UTF-8 Plain Text
Duration : 7 min 19 s
Bit rate : 93 b/s
Count of elements : 134
Stream size : 5.01 KiB (0%)
Title : latviešu
Language : Latvian
Default : No
Forced : No

Text #23
ID : 25
Format : UTF-8
Codec ID : S_TEXT/UTF8
Codec ID/Info : UTF-8 Plain Text
Duration : 7 min 19 s
Bit rate : 96 b/s
Count of elements : 132
Stream size : 5.20 KiB (0%)
Title : Bahasa Melayu
Language : Malay
Default : No
Forced : No

Text #24
ID : 26
Format : UTF-8
Codec ID : S_TEXT/UTF8
Codec ID/Info : UTF-8 Plain Text
Duration : 7 min 19 s
Bit rate : 73 b/s
Count of elements : 94
Stream size : 3.96 KiB (0%)
Title : Nederlands
Language : Dutch
Default : No
Forced : No

Text #25
ID : 27
Format : UTF-8
Codec ID : S_TEXT/UTF8
Codec ID/Info : UTF-8 Plain Text
Duration : 7 min 19 s
Bit rate : 84 b/s
Count of elements : 135
Stream size : 4.54 KiB (0%)
Title : norsk
Language : Norwegian
Default : No
Forced : No

Text #26
ID : 28
Format : UTF-8
Codec ID : S_TEXT/UTF8
Codec ID/Info : UTF-8 Plain Text
Duration : 7 min 19 s
Bit rate : 83 b/s
Count of elements : 128
Stream size : 4.46 KiB (0%)
Title : polski
Language : Polish
Default : No
Forced : No

Text #27
ID : 29
Format : UTF-8
Codec ID : S_TEXT/UTF8
Codec ID/Info : UTF-8 Plain Text
Duration : 7 min 19 s
Bit rate : 96 b/s
Count of elements : 138
Stream size : 5.20 KiB (0%)
Title : Português
Language : Portuguese
Default : No
Forced : No

Text #28
ID : 30
Format : UTF-8
Codec ID : S_TEXT/UTF8
Codec ID/Info : UTF-8 Plain Text
Duration : 7 min 19 s
Bit rate : 91 b/s
Count of elements : 135
Stream size : 4.91 KiB (0%)
Title : Português (Brasil)
Language : Portuguese
Default : No
Forced : No

Text #29
ID : 31
Format : UTF-8
Codec ID : S_TEXT/UTF8
Codec ID/Info : UTF-8 Plain Text
Duration : 7 min 19 s
Bit rate : 150 b/s
Count of elements : 141
Stream size : 8.05 KiB (0%)
Title : Русский
Language : Russian
Default : No
Forced : No

Text #30
ID : 32
Format : UTF-8
Codec ID : S_TEXT/UTF8
Codec ID/Info : UTF-8 Plain Text
Duration : 7 min 19 s
Bit rate : 76 b/s
Count of elements : 124
Stream size : 4.09 KiB (0%)
Title : Slovenčina
Language : Slovak
Default : No
Forced : No

Text #31
ID : 33
Format : UTF-8
Codec ID : S_TEXT/UTF8
Codec ID/Info : UTF-8 Plain Text
Duration : 7 min 19 s
Bit rate : 73 b/s
Count of elements : 135
Stream size : 3.94 KiB (0%)
Title : slovenščina
Language : Slovenian
Default : No
Forced : No

Text #32
ID : 34
Format : UTF-8
Codec ID : S_TEXT/UTF8
Codec ID/Info : UTF-8 Plain Text
Duration : 7 min 19 s
Bit rate : 88 b/s
Count of elements : 123
Stream size : 4.74 KiB (0%)
Title : Svenska
Language : Swedish
Default : No
Forced : No

Text #33
ID : 35
Format : UTF-8
Codec ID : S_TEXT/UTF8
Codec ID/Info : UTF-8 Plain Text
Duration : 7 min 19 s
Bit rate : 346 b/s
Count of elements : 140
Stream size : 18.6 KiB (0%)
Title : தமிழ்
Language : Tamil
Default : No
Forced : No

Text #34
ID : 36
Format : UTF-8
Codec ID : S_TEXT/UTF8
Codec ID/Info : UTF-8 Plain Text
Duration : 7 min 19 s
Bit rate : 291 b/s
Count of elements : 141
Stream size : 15.6 KiB (0%)
Title : తెలుగు
Language : Telugu
Default : No
Forced : No

Text #35
ID : 37
Format : UTF-8
Codec ID : S_TEXT/UTF8
Codec ID/Info : UTF-8 Plain Text
Duration : 7 min 19 s
Bit rate : 247 b/s
Count of elements : 141
Stream size : 13.3 KiB (0%)
Title : ไทย
Language : Thai
Default : No
Forced : No

Text #36
ID : 38
Format : UTF-8
Codec ID : S_TEXT/UTF8
Codec ID/Info : UTF-8 Plain Text
Duration : 7 min 19 s
Bit rate : 151 b/s
Count of elements : 140
Stream size : 8.15 KiB (0%)
Title : українська
Language : Ukrainian
Default : No
Forced : No

Text #37
ID : 39
Format : UTF-8
Codec ID : S_TEXT/UTF8
Codec ID/Info : UTF-8 Plain Text
Duration : 7 min 19 s
Bit rate : 134 b/s
Count of elements : 139
Stream size : 7.21 KiB (0%)
Title : Tiếng Việt
Language : Vietnamese
Default : No
Forced : No

Text #38
ID : 40
Format : UTF-8
Codec ID : S_TEXT/UTF8
Codec ID/Info : UTF-8 Plain Text
Duration : 7 min 19 s
Bit rate : 90 b/s
Count of elements : 142
Stream size : 4.87 KiB (0%)
Title : 廣東話
Language : 中文
Default : No
Forced : No

Text #39
ID : 41
Format : UTF-8
Codec ID : S_TEXT/UTF8
Codec ID/Info : UTF-8 Plain Text
Duration : 7 min 19 s
Bit rate : 86 b/s
Count of elements : 142
Stream size : 4.66 KiB (0%)
Title : 中文(繁體)
Language : 中文
Default : No
Forced : No

Text #40
ID : 42
Format : UTF-8
Codec ID : S_TEXT/UTF8
Codec ID/Info : UTF-8 Plain Text
Duration : 7 min 19 s
Bit rate : 88 b/s
Count of elements : 140
Stream size : 4.78 KiB (0%)
Title : 中文(简体)
Language : 中文
Default : No
Forced : No





p2872566772_副本.png

◎译  名 伟大的密码 第二季
◎片  名 Greatness Code Season 2
◎年  代 2022
◎产  地 美国
◎类  别 纪录片/短片/传记/运动
◎上映日期 2022-05-13(美国)
◎IMDb评分  4.4/10 from 332 users
◎IMDb链接  https://www.imdb.com/title/tt12615492/
◎豆瓣评分 0/10 from 0 users
◎豆瓣链接 https://douban.com/subject/35887604/
◎集  数 6
◎主  演 马库斯·拉什福德 Marcus Rashford


◎简  介


  主角为7名知名运动员勒布朗·詹姆斯、汤姆·布拉迪、亚历克斯·摩根、尤塞恩·博尔特、肖恩·怀特、凯蒂·莱德基和Kelly Slater,讲述他们不为人知的背后故事,聚焦其职业生涯中的一个关键时刻。

Video
ID : 1
Format : HEVC
Format/Info : High Efficiency Video Coding
Format profile : Main 10@L5@High
HDR format : Dolby Vision, Version 1.0, dvhe.05.06, BL+RPU
Codec ID : dvhe
Codec ID/Info : High Efficiency Video Coding with Dolby Vision
Duration : 11 min 40 s
Bit rate : 25.0 Mb/s
Width : 3 840 pixels
Height : 2 160 pixels
Display aspect ratio : 16:9
Frame rate mode : Constant
Frame rate : 23.976 (24000/1001) FPS
Color space : YUV
Chroma subsampling : 4:2:0
Bit depth : 10 bits
Bits/(Pixel*Frame) : 0.125
Stream size : 2.04 GiB (97%)
Default : Yes
Alternate group : 1
Encoded date : UTC 2022-05-13 03:52:04
Tagged date : UTC 2022-05-13 03:52:09
Codec configuration box : hvcC+dvcC

Audio
ID : 2
Format : E-AC-3 JOC
Format/Info : Enhanced AC-3 with Joint Object Coding
Commercial name : Dolby Digital Plus with Dolby Atmos
Codec ID : ec-3
Duration : 11 min 40 s
Bit rate mode : Constant
Bit rate : 768 kb/s
Maximum bit rate : 811 kb/s
Channel(s) : 6 channels
Channel layout : L R C LFE Ls Rs
Sampling rate : 48.0 kHz
Frame rate : 31.250 FPS (1536 SPF)
Compression mode : Lossy
Stream size : 64.2 MiB (3%)
Title : English
Language : English
Service kind : Complete Main
Default : Yes
Alternate group : 1
Tagged date : UTC 2022-05-13 03:52:09
Complexity index : Not present / 16
Number of dynamic objects : 15
Bed channel count : 1 channel
Bed channel configuration : LFE

Text #1
ID : 3
Format : Timed Text
Codec ID : tx3g
Duration : 11 min 0 s
Bit rate mode : Variable
Bit rate : 133 b/s
Stream size : 10.7 KiB (0%)
Title : English
Language : English
Forced : No
Encoded date : UTC 2022-05-13 03:52:08
Tagged date : UTC 2022-05-13 03:52:09

Text #2
ID : 4
Format : Timed Text
Codec ID : tx3g
Duration : 11 min 34 s
Bit rate mode : Variable
Bit rate : 189 b/s
Stream size : 16.0 KiB (0%)
Title : Arabic
Language : Arabic
Forced : No
Encoded date : UTC 2022-05-13 03:52:08
Tagged date : UTC 2022-05-13 03:52:09

Text #3
ID : 5
Format : Timed Text
Codec ID : tx3g
Duration : 11 min 34 s
Bit rate mode : Variable
Bit rate : 170 b/s
Stream size : 14.4 KiB (0%)
Title : Bulgarian
Language : Bulgarian
Forced : No
Encoded date : UTC 2022-05-13 03:52:08
Tagged date : UTC 2022-05-13 03:52:09

Text #4
ID : 6
Format : Timed Text
Codec ID : tx3g
Duration : 11 min 34 s
Bit rate mode : Variable
Bit rate : 103 b/s
Stream size : 8.77 KiB (0%)
Title : 廣東話
Language : 中文
Forced : No
Encoded date : UTC 2022-05-13 03:52:08
Tagged date : UTC 2022-05-13 03:52:09

Text #5
ID : 7
Format : Timed Text
Codec ID : tx3g
Duration : 11 min 34 s
Bit rate mode : Variable
Bit rate : 115 b/s
Stream size : 9.79 KiB (0%)
Title : 中文(简体)
Language : 中文
Forced : No
Encoded date : UTC 2022-05-13 03:52:08
Tagged date : UTC 2022-05-13 03:52:09

Text #6
ID : 8
Format : Timed Text
Codec ID : tx3g
Duration : 11 min 34 s
Bit rate mode : Variable
Bit rate : 108 b/s
Stream size : 9.17 KiB (0%)
Title : 中文(繁體)
Language : 中文
Forced : No
Encoded date : UTC 2022-05-13 03:52:08
Tagged date : UTC 2022-05-13 03:52:09


Text #7
ID : 9
Format : Timed Text
Codec ID : tx3g
Duration : 11 min 34 s
Bit rate mode : Variable
Bit rate : 105 b/s
Stream size : 8.93 KiB (0%)
Title : Czech
Language : Czech
Forced : No
Encoded date : UTC 2022-05-13 03:52:08
Tagged date : UTC 2022-05-13 03:52:09

Text #8
ID : 10
Format : Timed Text
Codec ID : tx3g
Duration : 11 min 34 s
Bit rate mode : Variable
Bit rate : 105 b/s
Stream size : 8.89 KiB (0%)
Title : Danish
Language : Danish
Forced : No
Encoded date : UTC 2022-05-13 03:52:08
Tagged date : UTC 2022-05-13 03:52:09

Text #9
ID : 11
Format : Timed Text
Codec ID : tx3g
Duration : 11 min 34 s
Bit rate mode : Variable
Bit rate : 102 b/s
Stream size : 8.66 KiB (0%)
Title : Dutch
Language : Dutch
Forced : No
Encoded date : UTC 2022-05-13 03:52:08
Tagged date : UTC 2022-05-13 03:52:09

Text #10
ID : 12
Format : Timed Text
Codec ID : tx3g
Duration : 11 min 34 s
Bit rate mode : Variable
Bit rate : 116 b/s
Stream size : 9.85 KiB (0%)
Title : Estonian
Language : Estonian
Forced : No
Encoded date : UTC 2022-05-13 03:52:08
Tagged date : UTC 2022-05-13 03:52:09

Text #11
ID : 13
Format : Timed Text
Codec ID : tx3g
Duration : 11 min 34 s
Bit rate mode : Variable
Bit rate : 104 b/s
Stream size : 8.86 KiB (0%)
Title : Finnish
Language : Finnish
Forced : No
Encoded date : UTC 2022-05-13 03:52:08
Tagged date : UTC 2022-05-13 03:52:09

Text #12
ID : 14
Format : Timed Text
Codec ID : tx3g
Duration : 11 min 34 s
Bit rate mode : Variable
Bit rate : 110 b/s
Stream size : 9.34 KiB (0%)
Title : French
Language : French
Forced : No
Encoded date : UTC 2022-05-13 03:52:08
Tagged date : UTC 2022-05-13 03:52:09

Text #13
ID : 15
Format : Timed Text
Codec ID : tx3g
Duration : 11 min 34 s
Bit rate mode : Variable
Bit rate : 110 b/s
Stream size : 9.34 KiB (0%)
Title : French
Language : French
Forced : No
Encoded date : UTC 2022-05-13 03:52:08
Tagged date : UTC 2022-05-13 03:52:09

Text #14
ID : 16
Format : Timed Text
Codec ID : tx3g
Duration : 11 min 34 s
Bit rate mode : Variable
Bit rate : 106 b/s
Stream size : 8.96 KiB (0%)
Title : German
Language : German
Forced : No
Encoded date : UTC 2022-05-13 03:52:09
Tagged date : UTC 2022-05-13 03:52:09

Text #15
ID : 17
Format : Timed Text
Codec ID : tx3g
Duration : 11 min 34 s
Bit rate mode : Variable
Bit rate : 194 b/s
Stream size : 16.5 KiB (0%)
Title : Greek
Language : Greek
Forced : No
Encoded date : UTC 2022-05-13 03:52:09
Tagged date : UTC 2022-05-13 03:52:09

Text #16
ID : 18
Format : Timed Text
Codec ID : tx3g
Duration : 11 min 34 s
Bit rate mode : Variable
Bit rate : 157 b/s
Stream size : 13.3 KiB (0%)
Title : Hebrew
Language : Hebrew
Forced : No
Encoded date : UTC 2022-05-13 03:52:09
Tagged date : UTC 2022-05-13 03:52:09

Text #17
ID : 19
Format : Timed Text
Codec ID : tx3g
Duration : 11 min 34 s
Bit rate mode : Variable
Bit rate : 331 b/s
Stream size : 28.1 KiB (0%)
Title : Hindi
Language : Hindi
Forced : No
Encoded date : UTC 2022-05-13 03:52:09
Tagged date : UTC 2022-05-13 03:52:09

Text #18
ID : 20
Format : Timed Text
Codec ID : tx3g
Duration : 11 min 34 s
Bit rate mode : Variable
Bit rate : 124 b/s
Stream size : 10.6 KiB (0%)
Title : Hungarian
Language : Hungarian
Forced : No
Encoded date : UTC 2022-05-13 03:52:09
Tagged date : UTC 2022-05-13 03:52:09

Text #19
ID : 21
Format : Timed Text
Codec ID : tx3g
Duration : 11 min 34 s
Bit rate mode : Variable
Bit rate : 129 b/s
Stream size : 10.9 KiB (0%)
Title : Indonesian
Language : Indonesian
Forced : No
Encoded date : UTC 2022-05-13 03:52:09
Tagged date : UTC 2022-05-13 03:52:09

Text #20
ID : 22
Format : Timed Text
Codec ID : tx3g
Duration : 11 min 34 s
Bit rate mode : Variable
Bit rate : 112 b/s
Stream size : 9.50 KiB (0%)
Title : Italian
Language : Italian
Forced : No
Encoded date : UTC 2022-05-13 03:52:09
Tagged date : UTC 2022-05-13 03:52:09

Text #21
ID : 23
Format : Timed Text
Codec ID : tx3g
Duration : 11 min 37 s
Bit rate mode : Variable
Bit rate : 104 b/s
Stream size : 8.85 KiB (0%)
Title : Japanese
Language : Japanese
Forced : No
Encoded date : UTC 2022-05-13 03:52:09
Tagged date : UTC 2022-05-13 03:52:09

Text #22
ID : 24
Format : Timed Text
Codec ID : tx3g
Duration : 11 min 34 s
Bit rate mode : Variable
Bit rate : 122 b/s
Stream size : 10.3 KiB (0%)
Title : Korean
Language : Korean
Forced : No
Encoded date : UTC 2022-05-13 03:52:09
Tagged date : UTC 2022-05-13 03:52:09

Text #23
ID : 25
Format : Timed Text
Codec ID : tx3g
Duration : 11 min 34 s
Bit rate mode : Variable
Bit rate : 121 b/s
Stream size : 10.2 KiB (0%)
Title : Latvian
Language : Latvian
Forced : No
Encoded date : UTC 2022-05-13 03:52:09
Tagged date : UTC 2022-05-13 03:52:09

Text #24
ID : 26
Format : Timed Text
Codec ID : tx3g
Duration : 11 min 34 s
Bit rate mode : Variable
Bit rate : 109 b/s
Stream size : 9.26 KiB (0%)
Title : Lithuanian
Language : Lithuanian
Forced : No
Encoded date : UTC 2022-05-13 03:52:09
Tagged date : UTC 2022-05-13 03:52:09

Text #25
ID : 27
Format : Timed Text
Codec ID : tx3g
Duration : 11 min 34 s
Bit rate mode : Variable
Bit rate : 120 b/s
Stream size : 10.2 KiB (0%)
Title : Malay
Language : Malay
Forced : No
Encoded date : UTC 2022-05-13 03:52:09
Tagged date : UTC 2022-05-13 03:52:09

Text #26
ID : 28
Format : Timed Text
Codec ID : tx3g
Duration : 11 min 34 s
Bit rate mode : Variable
Bit rate : 94 b/s
Stream size : 7.96 KiB (0%)
Title : Norwegian
Language : Norwegian
Forced : No
Encoded date : UTC 2022-05-13 03:52:09
Tagged date : UTC 2022-05-13 03:52:09

Text #27
ID : 29
Format : Timed Text
Codec ID : tx3g
Duration : 11 min 34 s
Bit rate mode : Variable
Bit rate : 109 b/s
Stream size : 9.24 KiB (0%)
Title : Polish
Language : Polish
Forced : No
Encoded date : UTC 2022-05-13 03:52:09
Tagged date : UTC 2022-05-13 03:52:09

Text #28
ID : 30
Format : Timed Text
Codec ID : tx3g
Duration : 11 min 34 s
Bit rate mode : Variable
Bit rate : 121 b/s
Stream size : 10.3 KiB (0%)
Title : Portuguese
Language : Portuguese
Forced : No
Encoded date : UTC 2022-05-13 03:52:09
Tagged date : UTC 2022-05-13 03:52:09

Text #29
ID : 31
Format : Timed Text
Codec ID : tx3g
Duration : 11 min 34 s
Bit rate mode : Variable
Bit rate : 110 b/s
Stream size : 9.31 KiB (0%)
Title : Portuguese
Language : Portuguese
Forced : No
Encoded date : UTC 2022-05-13 03:52:09
Tagged date : UTC 2022-05-13 03:52:09

Text #30
ID : 32
Format : Timed Text
Codec ID : tx3g
Duration : 11 min 34 s
Bit rate mode : Variable
Bit rate : 185 b/s
Stream size : 15.7 KiB (0%)
Title : Russian
Language : Russian
Forced : No
Encoded date : UTC 2022-05-13 03:52:09
Tagged date : UTC 2022-05-13 03:52:09

Text #31
ID : 33
Format : Timed Text
Codec ID : tx3g
Duration : 11 min 34 s
Bit rate mode : Variable
Bit rate : 108 b/s
Stream size : 9.12 KiB (0%)
Title : Slovak
Language : Slovak
Forced : No
Encoded date : UTC 2022-05-13 03:52:09
Tagged date : UTC 2022-05-13 03:52:09

Text #32
ID : 34
Format : Timed Text
Codec ID : tx3g
Duration : 11 min 34 s
Bit rate mode : Variable
Bit rate : 98 b/s
Stream size : 8.30 KiB (0%)
Title : Slovenian
Language : Slovenian
Forced : No
Encoded date : UTC 2022-05-13 03:52:09
Tagged date : UTC 2022-05-13 03:52:09

Text #33
ID : 35
Format : Timed Text
Codec ID : tx3g
Duration : 11 min 34 s
Bit rate mode : Variable
Bit rate : 103 b/s
Stream size : 8.77 KiB (0%)
Title : Spanish
Language : Spanish
Forced : No
Encoded date : UTC 2022-05-13 03:52:09
Tagged date : UTC 2022-05-13 03:52:09

Text #34
ID : 36
Format : Timed Text
Codec ID : tx3g
Duration : 11 min 34 s
Bit rate mode : Variable
Bit rate : 109 b/s
Stream size : 9.28 KiB (0%)
Title : Spanish-EU
Language : Spanish
Forced : No
Encoded date : UTC 2022-05-13 03:52:09
Tagged date : UTC 2022-05-13 03:52:09

Text #35
ID : 37
Format : Timed Text
Codec ID : tx3g
Duration : 11 min 34 s
Bit rate mode : Variable
Bit rate : 114 b/s
Stream size : 9.68 KiB (0%)
Title : Swedish
Language : Swedish
Forced : No
Encoded date : UTC 2022-05-13 03:52:09
Tagged date : UTC 2022-05-13 03:52:09

Text #36
ID : 38
Format : Timed Text
Codec ID : tx3g
Duration : 11 min 34 s
Bit rate mode : Variable
Bit rate : 369 b/s
Stream size : 31.3 KiB (0%)
Title : Tamil
Language : Tamil
Forced : No
Encoded date : UTC 2022-05-13 03:52:09
Tagged date : UTC 2022-05-13 03:52:09

Text #37
ID : 39
Format : Timed Text
Codec ID : tx3g
Duration : 11 min 34 s
Bit rate mode : Variable
Bit rate : 371 b/s
Stream size : 31.5 KiB (0%)
Title : Telugu
Language : Telugu
Forced : No
Encoded date : UTC 2022-05-13 03:52:09
Tagged date : UTC 2022-05-13 03:52:09

Text #38
ID : 40
Format : Timed Text
Codec ID : tx3g
Duration : 11 min 34 s
Bit rate mode : Variable
Bit rate : 311 b/s
Stream size : 26.3 KiB (0%)
Title : Thai
Language : Thai
Forced : No
Encoded date : UTC 2022-05-13 03:52:09
Tagged date : UTC 2022-05-13 03:52:09

Text #39
ID : 41
Format : Timed Text
Codec ID : tx3g
Duration : 11 min 34 s
Bit rate mode : Variable
Bit rate : 122 b/s
Stream size : 10.3 KiB (0%)
Title : Turkish
Language : Turkish
Forced : No
Encoded date : UTC 2022-05-13 03:52:09
Tagged date : UTC 2022-05-13 03:52:09

Text #40
ID : 42
Format : Timed Text
Codec ID : tx3g
Duration : 11 min 34 s
Bit rate mode : Variable
Bit rate : 193 b/s
Stream size : 16.4 KiB (0%)
Title : Ukrainian
Language : Ukrainian
Forced : No
Encoded date : UTC 2022-05-13 03:52:09
Tagged date : UTC 2022-05-13 03:52:09

Text #41
ID : 43
Format : Timed Text
Codec ID : tx3g
Duration : 11 min 34 s
Bit rate mode : Variable
Bit rate : 165 b/s
Stream size : 14.0 KiB (0%)
Title : Vietnamese
Language : Vietnamese
Forced : No
Encoded date : UTC 2022-05-13 03:52:09
Tagged date : UTC 2022-05-13 03:52:09
下载地址:

第一季

游客,如果您要查看本帖隐藏内容请回复

游客,如果您要查看本帖隐藏内容请回复



第二季

游客,如果您要查看本帖隐藏内容请回复

游客,如果您要查看本帖隐藏内容请回复

游客,如果您要查看本帖隐藏内容请回复

游客,如果您要查看本帖隐藏内容请回复



.

上一篇:高堡奇人(简繁中字)(2019)/第一、四季全打包/4K高清版本下载
下一篇:永恒使命(简繁中字)(2022)/第一季全8集/4K高清版本下载
回复

使用道具 举报

3

主题

1465

帖子

4249

积分

4K家园VIP

Rank: 9Rank: 9Rank: 9

积分
4249
发表于 7 天前 来自手机 | 显示全部楼层
占坑编辑ing
回复 支持 反对

使用道具 举报

2

主题

1370

帖子

3976

积分

4K家园VIP

Rank: 9Rank: 9Rank: 9

积分
3976
发表于 6 天前 | 显示全部楼层
呵呵,低调,低调!
回复 支持 反对

使用道具 举报

1

主题

1389

帖子

3977

积分

4K家园VIP

Rank: 9Rank: 9Rank: 9

积分
3977
发表于 6 天前 | 显示全部楼层
差评
回复 支持 反对

使用道具 举报

0

主题

1356

帖子

4082

积分

4K家园VIP

Rank: 9Rank: 9Rank: 9

积分
4082
发表于 6 天前 | 显示全部楼层
围观 围观 沙发在哪里!!!
回复 支持 反对

使用道具 举报

3

主题

1412

帖子

4062

积分

4K家园VIP

Rank: 9Rank: 9Rank: 9

积分
4062
发表于 6 天前 | 显示全部楼层
呵呵。。。
回复 支持 反对

使用道具 举报

您需要登录后才可以回帖 登录 | 立即注册

本版积分规则

精彩图文
Archiver|手机版|TAG|Sitemap|新帖|专题|联系我们:邮箱: 4kjia.com@gmail.com   

4k家园   ©2019