博斯:传承 (简繁中字) (2022)/第一季10集全 / 4K高清下载

  [复制链接]

203

主题

226

帖子

2233

积分

版主

Rank: 7Rank: 7Rank: 7

积分
2233
 楼主| 发表于 2022-5-15 10:52:30 | 显示全部楼层 |阅读模式
本帖最后由 美剧小虾 于 2022-5-30 17:39 编辑

p2869521043_副本.jpg

◎译  名 博斯:传承
◎片  名 Bosch: Legacy
◎年  代 2022
◎产  地 美国
◎类  别 剧情/犯罪
◎语  言 英语
◎上映日期 2022-05-06(美国)
◎IMDb评分  9.1/10 from 2209 users
◎IMDb链接  https://www.imdb.com/title/tt14168162/
◎豆瓣评分 9.2/10 from 225 users
◎豆瓣链接 https://douban.com/subject/35580204/
◎集  数 10
◎导  演 泽纳·富恩特斯 Zetna Fuentes
◎编  剧 麦可·康纳利 Michael Connelly / 埃里克·艾利斯·奥弗迈耶 Eric Ellis Overmyer / 娜奥米·饭冢 Naomi Lizuka
◎主  演 提图斯·维里沃 Titus Welliver
       米密·罗杰斯 Mimi Rogers
       麦迪逊·林茨 Madison Lintz
       David Moses David Moses
       菲尔·莫里斯 Phil Morris
       亚历克斯·洛那兹 Alex Loynaz
       迈克尔·罗斯 Michael Rose
       安德鲁·博尔巴 Andrew Borba
       凯特·伯顿 Kate Burton
       马克·罗斯顿 Mark Rolston
       威廉姆·德瓦内 William Devane
       雨果·阿姆斯特朗 Hugo Armstrong
       Kandiss Edmundson Kandiss Edmundson
       马库斯·吉亚马蒂 Marcus Giamatti
       伦·科尔多瓦 Len Cordova
       阿兰·罗森伯格 Alan Rosenberg
       阿尔玛·马丁内斯 Alma Martinez
       保罗•希普 Paul Hipp
       利亚姆·詹姆斯·拉莫斯 Liam James Ramos
       Terri Hoyos Terri Hoyos
       威尔·切斯 Will Chase
       斯科特·克拉斯 Scott Klace
       辛希亚·卡耶·麦克威廉姆斯 Cynthia Kaye McWilliams
       特洛伊·伊万斯 Troy Evans
       Tom Costello Tom Costello
       乔治·斯科特·柯民思 Gregory Scott Cummins
       杰夫·科贝特 Jeff Corbett
       吉姆·霍尔姆斯 Jim Holmes
       乔·阿德勒 Joe Adler
       Raff Anoushian Raff Anoushian
       杰·罗德里格斯 Jai Rodriguez
       肯特·绍克内克 Kent Shocknek
       帕特里克·罗伯特·史密斯 Patrick Robert Smith
       马克·阿戴尔-里奥斯 Mark Adair-Rios
       Greg Fitzpatrick Greg Fitzpatrick
       艾莎卡比娅 Aisha Kabia


◎简  介


  博世开始了他职业生涯的下一个篇章,发现自己与他曾经的敌人哈尼·钱德勒(Honey Chandler)共事。

Video
ID : 1
Format : HEVC
Format/Info : High Efficiency Video Coding
Format profile : Main 10@L5@Main
HDR format : SMPTE ST 2094 App 4, Version 1, HDR10+ Profile B compatible
Codec ID : V_MPEGH/ISO/HEVC
Duration : 54 min 48 s
Bit rate : 14.4 Mb/s
Width : 3 840 pixels
Height : 2 160 pixels
Display aspect ratio : 16:9
Frame rate mode : Constant
Frame rate : 23.976 (24000/1001) FPS
Color space : YUV
Chroma subsampling : 4:2:0
Bit depth : 10 bits
Bits/(Pixel*Frame) : 0.072
Stream size : 5.50 GiB (96%)
Default : Yes
Forced : No
Color range : Limited
Color primaries : BT.2020
Transfer characteristics : PQ
Matrix coefficients : BT.2020 non-constant
Mastering display color primaries : Display P3
Mastering display luminance : min: 0.0001 cd/m2, max: 1000 cd/m2
Maximum Content Light Level : 866 cd/m2
Maximum Frame-Average Light Level : 52 cd/m2

Audio
ID : 2
Format : E-AC-3
Format/Info : Enhanced AC-3
Commercial name : Dolby Digital Plus
Codec ID : A_EAC3
Duration : 54 min 48 s
Bit rate mode : Constant
Bit rate : 640 kb/s
Channel(s) : 6 channels
Channel layout : L R C LFE Ls Rs
Sampling rate : 48.0 kHz
Frame rate : 31.250 FPS (1536 SPF)
Compression mode : Lossy
Stream size : 251 MiB (4%)
Language : English
Service kind : Complete Main
Default : Yes
Forced : No

Text #1
ID : 3
Format : UTF-8
Codec ID : S_TEXT/UTF8
Codec ID/Info : UTF-8 Plain Text
Duration : 53 min 53 s
Bit rate : 63 b/s
Count of elements : 769
Stream size : 25.1 KiB (0%)
Title : Malay (Malaysia)
Language : Malay
Default : No
Forced : No

Text #2
ID : 4
Format : UTF-8
Codec ID : S_TEXT/UTF8
Codec ID/Info : UTF-8 Plain Text
Duration : 53 min 53 s
Bit rate : 63 b/s
Count of elements : 765
Stream size : 25.1 KiB (0%)
Title : Danish (Denmark)
Language : Danish
Default : No
Forced : No

Text #3
ID : 5
Format : UTF-8
Codec ID : S_TEXT/UTF8
Codec ID/Info : UTF-8 Plain Text
Duration : 53 min 53 s
Bit rate : 64 b/s
Count of elements : 763
Stream size : 25.4 KiB (0%)
Title : German (Germany)
Language : German
Default : No
Forced : No

Text #4
ID : 6
Format : UTF-8
Codec ID : S_TEXT/UTF8
Codec ID/Info : UTF-8 Plain Text
Duration : 52 min 31 s
Bit rate : 77 b/s
Count of elements : 946
Stream size : 29.8 KiB (0%)
Title : English (United States)
Language : English
Default : No
Forced : No

Text #5
ID : 7
Format : UTF-8
Codec ID : S_TEXT/UTF8
Codec ID/Info : UTF-8 Plain Text
Duration : 53 min 53 s
Bit rate : 64 b/s
Count of elements : 766
Stream size : 25.3 KiB (0%)
Title : Spanish (Spain)
Language : Spanish
Default : No
Forced : No

Text #6
ID : 8
Format : UTF-8
Codec ID : S_TEXT/UTF8
Codec ID/Info : UTF-8 Plain Text
Duration : 53 min 53 s
Bit rate : 65 b/s
Count of elements : 757
Stream size : 25.8 KiB (0%)
Title : Spanish (Latin America)
Language : Spanish
Default : No
Forced : No

Text #7
ID : 9
Format : UTF-8
Codec ID : S_TEXT/UTF8
Codec ID/Info : UTF-8 Plain Text
Duration : 53 min 53 s
Bit rate : 69 b/s
Count of elements : 762
Stream size : 27.3 KiB (0%)
Title : Filipino (Philippines)
Language : fil
Default : No
Forced : No

Text #8
ID : 10
Format : UTF-8
Codec ID : S_TEXT/UTF8
Codec ID/Info : UTF-8 Plain Text
Duration : 53 min 53 s
Bit rate : 65 b/s
Count of elements : 756
Stream size : 25.9 KiB (0%)
Title : French (France)
Language : French
Default : No
Forced : No

Text #9
ID : 11
Format : UTF-8
Codec ID : S_TEXT/UTF8
Codec ID/Info : UTF-8 Plain Text
Duration : 53 min 53 s
Bit rate : 62 b/s
Count of elements : 768
Stream size : 24.8 KiB (0%)
Title : Indonesian (Indonesia)
Language : Indonesian
Default : No
Forced : No

Text #10
ID : 12
Format : UTF-8
Codec ID : S_TEXT/UTF8
Codec ID/Info : UTF-8 Plain Text
Duration : 53 min 53 s
Bit rate : 65 b/s
Count of elements : 768
Stream size : 25.9 KiB (0%)
Title : Italian (Italy)
Language : Italian
Default : No
Forced : No

Text #11
ID : 13
Format : UTF-8
Codec ID : S_TEXT/UTF8
Codec ID/Info : UTF-8 Plain Text
Duration : 53 min 53 s
Bit rate : 68 b/s
Count of elements : 770
Stream size : 27.0 KiB (0%)
Title : Hungarian (Hungary)
Language : Hungarian
Default : No
Forced : No

Text #12
ID : 14
Format : UTF-8
Codec ID : S_TEXT/UTF8
Codec ID/Info : UTF-8 Plain Text
Duration : 53 min 53 s
Bit rate : 66 b/s
Count of elements : 753
Stream size : 26.3 KiB (0%)
Title : Dutch (Netherlands)
Language : Dutch
Default : No
Forced : No

Text #13
ID : 15
Format : UTF-8
Codec ID : S_TEXT/UTF8
Codec ID/Info : UTF-8 Plain Text
Duration : 53 min 53 s
Bit rate : 60 b/s
Count of elements : 766
Stream size : 24.0 KiB (0%)
Title : Norwegian Bokmål (Norway)
Language : Norwegian
Default : No
Forced : No

Text #14
ID : 16
Format : UTF-8
Codec ID : S_TEXT/UTF8
Codec ID/Info : UTF-8 Plain Text
Duration : 53 min 53 s
Bit rate : 62 b/s
Count of elements : 756
Stream size : 24.8 KiB (0%)
Title : Polish (Poland)
Language : Polish
Default : No
Forced : No

Text #15
ID : 17
Format : UTF-8
Codec ID : S_TEXT/UTF8
Codec ID/Info : UTF-8 Plain Text
Duration : 53 min 53 s
Bit rate : 62 b/s
Count of elements : 757
Stream size : 24.8 KiB (0%)
Title : Portuguese (Brazil)
Language : Portuguese
Default : No
Forced : No

Text #16
ID : 18
Format : UTF-8
Codec ID : S_TEXT/UTF8
Codec ID/Info : UTF-8 Plain Text
Duration : 53 min 53 s
Bit rate : 66 b/s
Count of elements : 768
Stream size : 26.3 KiB (0%)
Title : Portuguese (Portugal)
Language : Portuguese
Default : No
Forced : No

Text #17
ID : 19
Format : UTF-8
Codec ID : S_TEXT/UTF8
Codec ID/Info : UTF-8 Plain Text
Duration : 53 min 53 s
Bit rate : 68 b/s
Count of elements : 766
Stream size : 27.2 KiB (0%)
Title : Romanian (Romania)
Language : Romanian
Default : No
Forced : No

Text #18
ID : 20
Format : UTF-8
Codec ID : S_TEXT/UTF8
Codec ID/Info : UTF-8 Plain Text
Duration : 53 min 53 s
Bit rate : 65 b/s
Count of elements : 757
Stream size : 25.9 KiB (0%)
Title : Finnish (Finland)
Language : Finnish
Default : No
Forced : No

Text #19
ID : 21
Format : UTF-8
Codec ID : S_TEXT/UTF8
Codec ID/Info : UTF-8 Plain Text
Duration : 53 min 53 s
Bit rate : 61 b/s
Count of elements : 753
Stream size : 24.3 KiB (0%)
Title : Swedish (Sweden)
Language : Swedish
Default : No
Forced : No

Text #20
ID : 22
Format : UTF-8
Codec ID : S_TEXT/UTF8
Codec ID/Info : UTF-8 Plain Text
Duration : 53 min 53 s
Bit rate : 67 b/s
Count of elements : 769
Stream size : 26.6 KiB (0%)
Title : Turkish (Turkey)
Language : Turkish
Default : No
Forced : No

Text #21
ID : 23
Format : UTF-8
Codec ID : S_TEXT/UTF8
Codec ID/Info : UTF-8 Plain Text
Duration : 53 min 53 s
Bit rate : 65 b/s
Count of elements : 769
Stream size : 25.9 KiB (0%)
Title : Czech (Czechia)
Language : Czech
Default : No
Forced : No

Text #22
ID : 24
Format : UTF-8
Codec ID : S_TEXT/UTF8
Codec ID/Info : UTF-8 Plain Text
Duration : 53 min 53 s
Bit rate : 108 b/s
Count of elements : 768
Stream size : 42.7 KiB (0%)
Title : Greek (Greece)
Language : Greek
Default : No
Forced : No

Text #23
ID : 25
Format : UTF-8
Codec ID : S_TEXT/UTF8
Codec ID/Info : UTF-8 Plain Text
Duration : 53 min 53 s
Bit rate : 102 b/s
Count of elements : 757
Stream size : 40.6 KiB (0%)
Title : Hebrew (Israel)
Language : Hebrew
Default : No
Forced : No

Text #24
ID : 26
Format : UTF-8
Codec ID : S_TEXT/UTF8
Codec ID/Info : UTF-8 Plain Text
Duration : 53 min 53 s
Bit rate : 113 b/s
Count of elements : 769
Stream size : 45.0 KiB (0%)
Title : Arabic (world)
Language : Arabic
Default : No
Forced : No

Text #25
ID : 27
Format : UTF-8
Codec ID : S_TEXT/UTF8
Codec ID/Info : UTF-8 Plain Text
Duration : 53 min 53 s
Bit rate : 163 b/s
Count of elements : 769
Stream size : 64.6 KiB (0%)
Title : Hindi (India)
Language : Hindi
Default : No
Forced : No

Text #26
ID : 28
Format : UTF-8
Codec ID : S_TEXT/UTF8
Codec ID/Info : UTF-8 Plain Text
Duration : 53 min 53 s
Bit rate : 160 b/s
Count of elements : 769
Stream size : 63.2 KiB (0%)
Title : Tamil (India)
Language : Tamil
Default : No
Forced : No

Text #27
ID : 29
Format : UTF-8
Codec ID : S_TEXT/UTF8
Codec ID/Info : UTF-8 Plain Text
Duration : 53 min 53 s
Bit rate : 172 b/s
Count of elements : 768
Stream size : 68.0 KiB (0%)
Title : Telugu (India)
Language : Telugu
Default : No
Forced : No

Text #28
ID : 30
Format : UTF-8
Codec ID : S_TEXT/UTF8
Codec ID/Info : UTF-8 Plain Text
Duration : 53 min 53 s
Bit rate : 163 b/s
Count of elements : 768
Stream size : 64.5 KiB (0%)
Title : Thai (Thailand)
Language : Thai
Default : No
Forced : No

Text #29
ID : 31
Format : UTF-8
Codec ID : S_TEXT/UTF8
Codec ID/Info : UTF-8 Plain Text
Duration : 53 min 53 s
Bit rate : 68 b/s
Count of elements : 769
Stream size : 27.0 KiB (0%)
Title : 中文(简体)
Language : 中文
Default : No
Forced : No

Text #30
ID : 32
Format : UTF-8
Codec ID : S_TEXT/UTF8
Codec ID/Info : UTF-8 Plain Text
Duration : 53 min 53 s
Bit rate : 62 b/s
Count of elements : 769
Stream size : 24.6 KiB (0%)
Title : 中文(繁体)
Language : 中文
Default : No
Forced : No

Text #31
ID : 33
Format : UTF-8
Codec ID : S_TEXT/UTF8
Codec ID/Info : UTF-8 Plain Text
Duration : 53 min 53 s
Bit rate : 53 b/s
Count of elements : 755
Stream size : 21.0 KiB (0%)
Title : Japanese (Japan)
Language : Japanese
Default : No
Forced : No

Text #32
ID : 34
Format : UTF-8
Codec ID : S_TEXT/UTF8
Codec ID/Info : UTF-8 Plain Text
Duration : 53 min 53 s
Bit rate : 69 b/s
Count of elements : 769
Stream size : 27.4 KiB (0%)
Title : Korean (South Korea)
Language : Korean
Default : No
Forced : No

下载地址:(均为内嵌简繁中字)
博斯:传承第一季10集全
游客,如果您要查看本帖隐藏内容请回复

游客,如果您要查看本帖隐藏内容请回复


第十集
游客,如果您要查看本帖隐藏内容请回复

第九集
游客,如果您要查看本帖隐藏内容请回复

第八集
游客,如果您要查看本帖隐藏内容请回复

游客,如果您要查看本帖隐藏内容请回复

第七集
游客,如果您要查看本帖隐藏内容请回复

游客,如果您要查看本帖隐藏内容请回复

第六集
游客,如果您要查看本帖隐藏内容请回复

第五集
游客,如果您要查看本帖隐藏内容请回复

第四集
游客,如果您要查看本帖隐藏内容请回复

第三集
游客,如果您要查看本帖隐藏内容请回复

第二集
游客,如果您要查看本帖隐藏内容请回复

第一集
游客,如果您要查看本帖隐藏内容请回复




.




上一篇:永恒使命(简繁中字)(2022)/第一季全8集/4K高清版本下载
下一篇:聊天记录 (2022)/第一季全12集/4K高清版本下载
回复

使用道具 举报

1

主题

1379

帖子

3969

积分

4K家园VIP

Rank: 9Rank: 9Rank: 9

积分
3969
发表于 2022-5-15 10:53:06 来自手机 | 显示全部楼层
报告!别开枪,我就是路过来看看的。。。
回复 支持 反对

使用道具 举报

5

主题

1706

帖子

4724

积分

4K家园VIP

Rank: 9Rank: 9Rank: 9

积分
4724
发表于 2022-5-15 14:05:27 | 显示全部楼层
回复 支持 反对

使用道具 举报

4

主题

1446

帖子

4182

积分

4K家园VIP

Rank: 9Rank: 9Rank: 9

积分
4182
发表于 2022-5-15 17:48:56 | 显示全部楼层
额.....这个可以有
回复 支持 反对

使用道具 举报

2

主题

1353

帖子

4083

积分

4K家园VIP

Rank: 9Rank: 9Rank: 9

积分
4083
发表于 2022-5-15 18:37:50 来自手机 | 显示全部楼层
支持,楼下的跟上哈~
回复 支持 反对

使用道具 举报

51

主题

1526

帖子

4398

积分

4K家园VIP

Rank: 9Rank: 9Rank: 9

积分
4398
发表于 2022-5-15 22:15:34 来自手机 | 显示全部楼层
感谢分享
回复 支持 反对

使用道具 举报

0

主题

1

帖子

10

积分

新手上路

Rank: 1

积分
10
发表于 2022-5-16 20:40:33 | 显示全部楼层
OK,太好看了
回复 支持 反对

使用道具 举报

0

主题

3

帖子

12

积分

新手上路

Rank: 1

积分
12
发表于 2022-5-21 18:28:43 来自手机 | 显示全部楼层
谢谢分享
回复

使用道具 举报

0

主题

3

帖子

21

积分

新手上路

Rank: 1

积分
21
发表于 2022-5-27 00:26:09 | 显示全部楼层
谢谢分享
回复

使用道具 举报

0

主题

2

帖子

12

积分

新手上路

Rank: 1

积分
12
发表于 2022-5-30 00:39:12 来自手机 | 显示全部楼层
听说回复可以下载的
回复 支持 反对

使用道具 举报

您需要登录后才可以回帖 登录 | 立即注册

本版积分规则

精彩图文
Archiver|手机版|TAG|Sitemap|新帖|专题|联系我们:邮箱: 4kjia.com@gmail.com   

4k家园   ©2019