[4K电影] 绞肉行动 / Operation Mincemeat (2021) 4k高清版本下载

[复制链接]

2299

主题

2448

帖子

1万

积分

超级版主

Rank: 8Rank: 8

积分
17752
 楼主| 发表于 2022-5-16 09:57:05 | 显示全部楼层 |阅读模式
本帖最后由 最爱4K哟 于 2022-5-17 10:06 编辑

QQ图片20220516095021_副本.png

◎译  名 绞肉行动/全谎位作战(港)/肉馅行动/死间行动(台)
◎片  名 Operation Mincemeat
◎年  代 2021
◎产  地 英国/美国
◎类  别 剧情/战争
◎语  言 西班牙语/英语
◎上映日期 2021-11-05(澳大利亚英国电影节)/2022-04-15(英国)/2022-05-11(美国网络/中国大陆网络)
◎IMDb评分  6.7/10 from 5562 users
◎IMDb链接  https://www.imdb.com/title/tt1879016
◎豆瓣评分 6.4/10 from 1196 users
◎豆瓣链接 https://douban.com/subject/34816897/
◎片  长 128分钟
◎导  演 约翰·马登 John Madden
◎编  剧 米歇尔·阿什福德 Michelle Ashford
◎主  演 科林·费尔斯 Colin Firth
       马修·麦克费登 Matthew Macfadyen
       强尼·弗林 Johnny Flynn
       詹森·艾萨克 Jason Isaacs
       凯莉·麦克唐纳 Kelly Macdonald
       佩内洛普·威尔顿 Penelope Wilton
       马克·加蒂斯 Mark Gatiss
       西蒙·拉塞尔·比尔 Simon Russell Beale
       鲁弗斯·赖特 Rufus Wright
       哈蒂·莫拉汉 Hattie Morahan
       阿历克斯·杰宁斯 Alex Jennings
       洛娜·麦克法迪 Lorne MacFadyen
       迈克尔·博特 Michael Bott
       埃莉·哈丁顿 Ellie Haddington
       鲁比·本特尔 Ruby Bentall
       西蒙·罗斯 Simon Rouse
       保罗·里特 Paul Ritter
       Amy Marston Amy Marston
       琼乔·奥雷尔 Jonjo O'Neill
       加布瑞拉·克里维 Gabrielle Creevy
       尼古拉斯·罗尔 Nicholas Rowe
       Will Keen Will Keen
       亚历山大·拜尔 Alexander Beyer
       马库斯·冯·林根 Markus von Lingen
       詹姆斯·弗雷特 James Fleet
       马克·博纳尔 Mark Bonnar
       哈维尔·戈迪诺 Javier Godino
       佩德罗·卡萨布兰科 Pedro Casablanc
       Laura Morgan Laura Morgan
       佩普·托萨 Pep Tosar
       格拉姆·柯里 Graham Curry


◎简  介


  影片聚焦第二次世界大战盟军策划的“绞肉行动”,歼灭德军数十万,为二战胜利奠定基础。1943年,盟军决定打破希特勒对被占领的欧洲地区的统治,情报官员埃文(科林·费尔斯 饰)和查尔斯(马修·麦克费登 饰)想出了一个妙不可言的假情报策略:用一具携带虚假机密的尸体误导德军,将其注意力引向希腊。希特勒中计后,盟军登陆了西西里岛,歼灭近20万德军,为欧洲战场的胜利奠定了坚实的基础。

Video
ID                             : 1
Format                         : HEVC
Format/Info                    : High Efficiency Video Coding
Format profile                 : Main 10@L5@High
HDR format                     : SMPTE ST 2086, HDR10 compatible
Codec ID                       : V_MPEGH/ISO/HEVC
Duration                       : 2 h 7 min
Bit rate                       : 14.1 Mb/s
Width                          : 3 840 pixels
Height                         : 1 606 pixels
Display aspect ratio           : 2.40:1
Frame rate mode                : Constant
Frame rate                     : 23.976 (24000/1001) FPS
Color space                    : YUV
Chroma subsampling             : 4:2:0 (Type 2)
Bit depth                      : 10 bits
Bits/(Pixel*Frame)             : 0.096
Stream size                    : 12.6 GiB (95%)
Default                        : Yes
Forced                         : No
Color range                    : Limited
Color primaries                : BT.2020
Transfer characteristics       : PQ
Matrix coefficients            : BT.2020 non-constant
Mastering display color primar : Display P3
Mastering display luminance    : min: 0.0001 cd/m2, max: 1000 cd/m2
Maximum Content Light Level    : 999 cd/m2
Maximum Frame-Average Light Le : 996 cd/m2

Audio
ID                             : 2
Format                         : AC-3
Format/Info                    : Audio Coding 3
Commercial name                : Dolby Digital
Codec ID                       : A_AC3
Duration                       : 2 h 7 min
Bit rate mode                  : Constant
Bit rate                       : 384 kb/s
Channel(s)                     : 6 channels
Channel layout                 : L R C LFE Ls Rs
Sampling rate                  : 48.0 kHz
Frame rate                     : 31.250 FPS (1536 SPF)
Compression mode               : Lossy
Stream size                    : 351 MiB (3%)
Language                       : English
Service kind                   : Complete Main
Default                        : Yes
Forced                         : No

资源速度为零或资源敏感被和谐时,推荐使用qBittorrent等下载软件,有条件的推荐115更好的下载软件!

下载地址:

游客,如果您要查看本帖隐藏内容请回复

游客,如果您要查看本帖隐藏内容请回复

****此区域为收费内容****    需支付 9 金币后可查看立即购买

****此区域为收费内容****    需支付 9 金币后可查看立即购买



.

上一篇:读书会 / Book Club (2018) 4k高清版本下载
下一篇:暗夜博士:莫比亚斯 (附字幕) / Morbius (2022) 4k高清版本下载
回复

使用道具 举报

0

主题

1340

帖子

4032

积分

4K家园VIP

Rank: 9Rank: 9Rank: 9

积分
4032
发表于 2022-5-16 09:57:11 | 显示全部楼层
回个帖子,下班咯~
回复 支持 反对

使用道具 举报

56

主题

1541

帖子

4479

积分

4K家园VIP

Rank: 9Rank: 9Rank: 9

积分
4479
发表于 2022-5-16 10:16:42 | 显示全部楼层
看起来好像不错的样子
回复 支持 反对

使用道具 举报

2

主题

1428

帖子

4302

积分

4K家园VIP

Rank: 9Rank: 9Rank: 9

积分
4302
发表于 2022-5-16 11:25:02 | 显示全部楼层
前排顶,很好!
回复 支持 反对

使用道具 举报

1

主题

1614

帖子

4450

积分

4K家园VIP

Rank: 9Rank: 9Rank: 9

积分
4450
发表于 2022-5-16 11:27:57 | 显示全部楼层
好帖必须得顶起
回复 支持 反对

使用道具 举报

0

主题

26

帖子

1669

积分

4K家园VIP

Rank: 9Rank: 9Rank: 9

积分
1669
发表于 2022-5-16 11:47:16 | 显示全部楼层
下载不了115
回复 支持 反对

使用道具 举报

203

主题

226

帖子

2233

积分

版主

Rank: 7Rank: 7Rank: 7

积分
2233
发表于 2022-5-16 11:55:38 | 显示全部楼层

用qB下载软件
回复 支持 反对

使用道具 举报

44

主题

1533

帖子

4417

积分

4K家园VIP

Rank: 9Rank: 9Rank: 9

积分
4417
发表于 2022-5-16 13:19:34 来自手机 | 显示全部楼层
感谢楼主发帖,前排顶起
回复 支持 反对

使用道具 举报

0

主题

2

帖子

12

积分

新手上路

Rank: 1

积分
12
发表于 2022-5-18 11:52:03 | 显示全部楼层
好好看一看
回复 支持 反对

使用道具 举报

0

主题

1

帖子

6

积分

新手上路

Rank: 1

积分
6
发表于 2022-5-22 19:05:23 | 显示全部楼层

cumming on tits

cumming on tits
回复 支持 反对

使用道具 举报

您需要登录后才可以回帖 登录 | 立即注册

本版积分规则

精彩图文
Archiver|手机版|TAG|Sitemap|新帖|专题|联系我们:邮箱: 4kjia.com@gmail.com   

4k家园   ©2019