聊天记录 (2022)/第一季全12集/4K高清版本下载

[复制链接]

203

主题

226

帖子

2233

积分

版主

Rank: 7Rank: 7Rank: 7

积分
2233
 楼主| 发表于 2022-5-16 12:00:02 | 显示全部楼层 |阅读模式
p2871396582_副本.jpg

◎译  名 聊天记录
◎片  名 Conversations with Friends
◎年  代 2022
◎产  地 英国/美国/爱尔兰
◎类  别 剧情/爱情
◎语  言 英语
◎上映日期 2022-05-15(英国/美国)
◎IMDb评分  6.9/10 from 159 users
◎IMDb链接  https://www.imdb.com/title/tt11997646/
◎豆瓣评分 /10 from 0 users
◎豆瓣链接 https://douban.com/subject/35118258/
◎集  数 12
◎片  长 30分钟
◎导  演 伦尼·阿伯拉罕森 Lenny Abrahamson / 利安娜·韦勒姆 Leanne Welham
◎编  剧 爱丽丝·伯奇 Alice Birch / 马克·奥哈洛伦 Mark O'Halloran / 萨莉·鲁尼 Sally Rooney
◎主  演 艾莉森·奥利弗 Alison Oliver
       萨莎·莱恩 Sasha Lane
       乔·阿尔文 Joe Alwyn
       杰米玛·科克 Jemima Kirke
       塔格·墨菲 Tadhg Murphy
       埃马纽埃尔·奥克耶 Emmanuel Okoye
       阿布里尔·基纳斯 Abril Keinrath
       查理·马赫 Charlie Maher
       莎拉·简·西摩尔 Sarah Jane Seymour
       尼克希尔·杜比 Nikhil Dubey
       安东尼·基纳汉 Anthony Kinahan
       克里斯托弗·利文斯顿 Christopher Livingstone



◎简  介


  《聊天记录》讲述了21岁的大学生Frances,她经历了一系列的情感关系,这些关系迫使她第一次面对自己脆弱的一面。

  Frances善于观察,理智且敏锐。她的前女友、现闺蜜Bobbi,则是自信满满、直言不讳、引人注目。尽管两人三年前就分手了,但Frances和Bobbi依旧形影不离,一起在都柏林进行诗歌表演。

  在一次表演过后,她们结识了更为年长的作家Melissa,以及她的丈夫Nick,一位帅气但沉默寡言的帅气演员。Mellisa对两人非常感兴趣,四人便开始了来往。

      当Mellisa和Bobbi公然调情的时候,Frances和Nick展开了一段秘密又炽烈的地下情,这一关系让两人都很意外。很快,这段恋情开始考验Frances和Bobbi的关系,迫使Frances重新审视自我意识,和自己非常珍重的友情。

Video
ID : 1
Format : HEVC
Format/Info : High Efficiency Video Coding
Format profile : Main 10@L5.1@Main
Codec ID : V_MPEGH/ISO/HEVC
Duration : 31 min 2 s
Bit rate : 15.4 Mb/s
Width : 3 840 pixels
Height : 2 160 pixels
Display aspect ratio : 16:9
Frame rate mode : Constant
Frame rate : 25.000 FPS
Color space : YUV
Chroma subsampling : 4:2:0
Bit depth : 10 bits
Bits/(Pixel*Frame) : 0.074
Stream size : 3.34 GiB (98%)
Default : Yes
Forced : No

Audio
ID : 2
Format : E-AC-3
Format/Info : Enhanced AC-3
Commercial name : Dolby Digital Plus
Codec ID : A_EAC3
Duration : 31 min 2 s
Bit rate mode : Constant
Bit rate : 256 kb/s
Channel(s) : 6 channels
Channel layout : L R C LFE Ls Rs
Sampling rate : 48.0 kHz
Frame rate : 31.250 FPS (1536 SPF)
Compression mode : Lossy
Stream size : 56.8 MiB (2%)
Language : English
Service kind : Complete Main
Default : Yes
Forced : No

Text #1
ID : 3
Format : UTF-8
Codec ID : S_TEXT/UTF8
Codec ID/Info : UTF-8 Plain Text
Duration : 30 min 40 s
Bit rate : 55 b/s
Count of elements : 449
Stream size : 12.5 KiB (0%)
Language : English
Default : No
Forced : No

Text #2
ID : 4
Format : UTF-8
Codec ID : S_TEXT/UTF8
Codec ID/Info : UTF-8 Plain Text
Duration : 30 min 56 s
Bit rate : 69 b/s
Count of elements : 551
Stream size : 15.8 KiB (0%)
Title : SDH
Language : English
Default : No
Forced : No

Text #3
ID : 5
Format : UTF-8
Codec ID : S_TEXT/UTF8
Codec ID/Info : UTF-8 Plain Text
Duration : 30 min 56 s
Bit rate : 65 b/s
Count of elements : 575
Stream size : 14.9 KiB (0%)
Title : SDH
Language : Spanish
Default : No
Forced : No

Menu
00:06:24.000 : en:Chapter 1
00:19:17.000 : en:Chapter 2
00:25:05.000 : en:Chapter 3
下载地址:


游客,如果您要查看本帖隐藏内容请回复




.

上一篇:博斯:传承 (简繁中字) (2022)/第一季10集全 / 4K高清下载
下一篇:我是遗物整理师 (2022) / 第一季全10集/4K高清版本下载
回复

使用道具 举报

3

主题

1395

帖子

4017

积分

4K家园VIP

Rank: 9Rank: 9Rank: 9

积分
4017
发表于 2022-5-16 12:00:34 | 显示全部楼层
沙发位出租,
回复 支持 反对

使用道具 举报

5

主题

1706

帖子

4724

积分

4K家园VIP

Rank: 9Rank: 9Rank: 9

积分
4724
发表于 2022-5-16 13:45:12 | 显示全部楼层
感谢分享
回复 支持 反对

使用道具 举报

2

主题

1384

帖子

4018

积分

4K家园VIP

Rank: 9Rank: 9Rank: 9

积分
4018
发表于 2022-5-17 05:43:18 | 显示全部楼层
有空一起交流一下
回复 支持 反对

使用道具 举报

1

主题

1736

帖子

4818

积分

4K家园VIP

Rank: 9Rank: 9Rank: 9

积分
4818
发表于 2022-5-17 11:11:19 | 显示全部楼层
高手啊
回复 支持 反对

使用道具 举报

0

主题

1406

帖子

4080

积分

4K家园VIP

Rank: 9Rank: 9Rank: 9

积分
4080
发表于 2022-5-17 22:55:13 | 显示全部楼层
啥玩应呀
回复 支持 反对

使用道具 举报

您需要登录后才可以回帖 登录 | 立即注册

本版积分规则

精彩图文
Archiver|手机版|TAG|Sitemap|新帖|专题|联系我们:邮箱: 4kjia.com@gmail.com   

4k家园   ©2019