[4K电影] 暗夜博士:莫比亚斯 (附字幕) / Morbius (2022) 4k高清版本下载

  [复制链接]

1868

主题

2007

帖子

1万

积分

超级版主

Rank: 8Rank: 8

积分
15027
 楼主| 发表于 2022-5-17 10:02:52 | 显示全部楼层 |阅读模式
本帖最后由 最爱4K哟 于 2022-5-17 20:57 编辑

QQ图片20220517095457_副本.png

◎译  名 暗夜博士:莫比亚斯/魔比煞(港)/魔比斯(台)/莫比亚斯/莫比亚斯:暗夜博士/吸血鬼莫比亚斯/Morbius the Living Vampire
◎片  名 Morbius
◎年  代 2022
◎产  地 美国
◎类  别 动作/科幻/恐怖
◎语  言 英语/西班牙语/俄语
◎上映日期 2022-04-01(美国)
◎IMDb评分  5.1/10 from 47500 users
◎IMDb链接  https://www.imdb.com/title/tt5108870/
◎豆瓣评分 5.7/10 from 4806 users
◎豆瓣链接 https://douban.com/subject/27199850/
◎片  长 104分钟
◎导  演 丹尼尔·伊斯皮诺萨 Daniel Espinosa
◎编  剧 马特·萨兹马 Matt Sazama / 伯克·沙普利斯 Burk Sharpless / 罗伊·托马斯 Roy Thomas / 吉尔·凯恩 Gil Kane
◎主  演 杰瑞德·莱托 Jared Leto
       马特·史密斯 Matt Smith
       阿德里娅·阿霍纳 Adria Arjona
       杰瑞德·哈里斯 Jared Harris
       泰瑞斯·吉布森 Tyrese Gibson
       艾尔·马德里加尔 Al Madrigal
       迈克尔·基顿 Michael Keaton
       查理·肖特韦尔 Charlie Shotwell
       汤姆·福布斯 Tom Forbes
       克拉拉·罗萨杰 Clara Rosager
       克里·约翰逊 Corey Johnson
       宾利·卡鲁 Bentley Kalu
       阿奇·雷诺 Archie Renaux
       乔乔·马卡里 Jojo Macari
       亚伯拉罕·波波拉 Abraham Popoola
       巴里·艾尔德 Barry Aird
       克里斯·雷曼 Chris Ryman
       马诺伊·阿南德 Manoj Anand
       卡德罗莎·奥娜·卡罗尔
       露丝·霍洛克斯 Ruth Horrocks
       贝恩·科拉科 Bern Collaço
       丹尼尔·厄根 Daniel Eghan
       菲利普·加斯科因 Philip Gascoyne
       通恰伊·古奈什 Tuncay Gunes
       豪尔赫·莱昂·马丁内斯 Jorge Leon Martinez
       尼克·欧文福特 Nick Owenford
       贾格·帕特尔 Jag Patel
       黛博拉·洛克 Deborah Rock
       阿图尔·夏尔马 Atul Sharma
       戴维娜·西塔拉姆 Davina Sitaram
       吉米·斯达 Jimmy Star
       斯图尔特·惠兰 Stuart Whelan
       亚当·柯林斯 Adam Collins
       迪索·拉莫斯 Diezel Ramos
       J·K·西蒙斯 J.K. Simmons
       伊斯雷尔·鲁兹 Israel Ruiz



◎简  介


  《暗夜博士:莫比亚斯》将首次把漫威宇宙中最另类的暗黑超级英雄莫比亚斯呈现于大银幕。由奥斯卡最佳男配得主杰瑞德·莱托饰演的莫比亚斯博士身患一种罕见的血液疾病,命不久矣的他决心找到治疗方法拯救其他同病患者。为此,他孤注一掷试图根除疾病。一开始一切似乎都成功了,但他的内心深处有一股黑暗却无端释放。善念能否压制住邪恶,还是莫比亚斯会屈服于这神秘的欲望?

Video
ID : 1
Format : HEVC
Format/Info : High Efficiency Video Coding
Format profile : Main 10@L5@High
HDR format : Dolby Vision, Version 1.0, dvhe.05.06, BL+RPU
Codec ID : dvhe
Codec ID/Info : High Efficiency Video Coding with Dolby Vision
Duration : 1 h 44 min
Bit rate : 14.5 Mb/s
Width : 3 840 pixels
Height : 1 600 pixels
Display aspect ratio : 2.40:1
Frame rate mode : Constant
Frame rate : 23.976 (24000/1001) FPS
Color space : YUV
Chroma subsampling : 4:2:0
Bit depth : 10 bits
Bits/(Pixel*Frame) : 0.098
Stream size : 10.6 GiB (95%)
Default : Yes
Alternate group : 1
Encoded date : UTC 2022-05-16 14:51:18
Tagged date : UTC 2022-05-16 14:52:39
Codec configuration box : hvcC+dvcC

Audio
ID : 2
Format : E-AC-3 JOC
Format/Info : Enhanced AC-3 with Joint Object Coding
Commercial name : Dolby Digital Plus with Dolby Atmos
Codec ID : ec-3
Duration : 1 h 44 min
Bit rate mode : Constant
Bit rate : 768 kb/s
Maximum bit rate : 811 kb/s
Channel(s) : 6 channels
Channel layout : L R C LFE Ls Rs
Sampling rate : 48.0 kHz
Frame rate : 31.250 FPS (1536 SPF)
Compression mode : Lossy
Stream size : 572 MiB (5%)
Title : English
Language : English
Service kind : Complete Main
Default : Yes
Alternate group : 1
Tagged date : UTC 2022-05-16 14:52:39
Complexity index : Not present / 16
Number of dynamic objects : 15
Bed channel count : 1 channel
Bed channel configuration : LFE

Text #1
ID : 3
Format : Timed Text
Codec ID : tx3g
Duration : 17 min 6 s
Bit rate mode : Variable
Bit rate : 1 b/s
Stream size : 90.0 Bytes (0%)
Title : English
Language : English
Forced : No
Encoded date : UTC 2022-05-16 14:52:39
Tagged date : UTC 2022-05-16 14:52:39

Text #2
ID : 4
Format : Timed Text
Codec ID : tx3g
Duration : 1 h 37 min
Bit rate mode : Variable
Bit rate : 48 b/s
Stream size : 34.5 KiB (0%)
Title : English
Language : English
Forced : No
Encoded date : UTC 2022-05-16 14:52:39
Tagged date : UTC 2022-05-16 14:52:39

资源速度为零或资源敏感被和谐时,推荐使用qBittorrent等下载软件,有条件的推荐115更好的下载软件!

下载地址:

游客,如果您要查看本帖隐藏内容请回复

游客,如果您要查看本帖隐藏内容请回复

游客,如果您要查看本帖隐藏内容请回复

游客,如果您要查看本帖隐藏内容请回复

游客,如果您要查看本帖隐藏内容请回复

游客,如果您要查看本帖隐藏内容请回复


相关外挂字幕:
游客,如果您要查看本帖隐藏内容请回复






上一篇:绞肉行动 / Operation Mincemeat (2021) 4k高清版本下载
下一篇:金翅雀(内封简繁中字)/ The Goldfinch (2019) 4k高清版本下载
回复

使用道具 举报

4

主题

1669

帖子

4577

积分

4K家园VIP

Rank: 9Rank: 9Rank: 9

积分
4577
发表于 2022-5-17 10:02:56 | 显示全部楼层
占位编辑
回复 支持 反对

使用道具 举报

56

主题

1549

帖子

4531

积分

4K家园VIP

Rank: 9Rank: 9Rank: 9

积分
4531
发表于 2022-5-17 10:08:33 | 显示全部楼层
回复 支持 反对

使用道具 举报

1

主题

1608

帖子

4430

积分

4K家园VIP

Rank: 9Rank: 9Rank: 9

积分
4430
发表于 2022-5-17 10:10:57 | 显示全部楼层
有4K版卡,下个看下
回复 支持 反对

使用道具 举报

2

主题

1738

帖子

4848

积分

4K家园VIP

Rank: 9Rank: 9Rank: 9

积分
4848
发表于 2022-5-17 10:28:41 | 显示全部楼层
打酱油的人拉,回复下赚取积分
回复 支持 反对

使用道具 举报

0

主题

38

帖子

1688

积分

4K家园VIP

Rank: 9Rank: 9Rank: 9

积分
1688
发表于 2022-5-17 10:30:29 | 显示全部楼层
漫威的英雄真多。。。
回复 支持 反对

使用道具 举报

1

主题

1728

帖子

4794

积分

4K家园VIP

Rank: 9Rank: 9Rank: 9

积分
4794
发表于 2022-5-17 10:44:32 | 显示全部楼层
发发呆,回回帖,工作结束~
回复 支持 反对

使用道具 举报

0

主题

381

帖子

2331

积分

注册会员

Rank: 2

积分
2331
发表于 2022-5-17 12:03:35 | 显示全部楼层
谢谢楼主分享
回复 支持 反对

使用道具 举报

0

主题

55

帖子

582

积分

新手上路

Rank: 1

积分
582
发表于 2022-5-17 12:16:03 | 显示全部楼层
哦吼?很nice
回复 支持 反对

使用道具 举报

0

主题

254

帖子

1610

积分

4K家园VIP

Rank: 9Rank: 9Rank: 9

积分
1610
QQ
发表于 2022-5-17 14:00:07 | 显示全部楼层
楼主辛苦了,谢谢楼主,感谢楼主分享,楼主好人一生平安!!!
回复 支持 反对

使用道具 举报

您需要登录后才可以回帖 登录 | 立即注册

本版积分规则

精彩图文
Archiver|手机版|TAG|Sitemap|新帖|专题|联系我们:邮箱: 4kjia.com@gmail.com   

4k家园   ©2019