[4K电影] 金翅雀(内封简繁中字)/ The Goldfinch (2019) 4k高清版本下载

[复制链接]

2299

主题

2448

帖子

1万

积分

超级版主

Rank: 8Rank: 8

积分
17752
 楼主| 发表于 2022-5-17 10:20:13 | 显示全部楼层 |阅读模式

QQ图片20220517101919_副本.png

◎译  名 金翅雀/囚鸟(港)
◎片  名 The Goldfinch
◎年  代 2019
◎产  地 美国
◎类  别 剧情
◎语  言 英语
◎上映日期 2019-09-08(多伦多电影节)/2019-09-13(美国)
◎IMDb评分  6.3/10 from 22053 users
◎IMDb链接  https://www.imdb.com/title/tt3864056/
◎豆瓣评分 6.6/10 from 4102 users
◎豆瓣链接 https://movie.douban.com/subject/25941405/
◎导  演 约翰·克劳利 John Crowley
◎编  剧 彼特·斯特劳恩 Peter Straughan / 唐娜·塔特 Donna Tartt
◎主  演 安塞尔·艾尔高特 Ansel Elgort
       妮可·基德曼 Nicole Kidman
       莎拉·保罗森 Sarah Paulson
       菲恩·伍法德 Finn Wolfhard
       阿什莉·卡明斯 Ashleigh Cummings
       卢克·威尔逊 Luke Wilson
       杰弗里·怀特 Jeffrey Wright
       阿奈林·巴纳德 Aneurin Barnard
       卢克·克莱恩坦克 Luke Kleintank
       彼得·雅各布森 Peter Jacobson
       丹尼斯·欧哈拉 Denis O'Hare
       薇拉·菲茨杰拉德 Willa Fitzgerald
       罗伯特·乔伊 Robert Joy
       乔伊·斯洛特尼克 Joey Slotnick
       奥克斯·费格雷 Oakes Fegley
       卡罗琳·戴 Caroline Day
       马德奥·范·德·格里恩 Matteo van der Grijn
       桃乐丝·麦卡锡 Doris McCarthy
       艾米·劳伦斯 Aimee Laurence
       戈登·威纳里克 Gordon Winarick
       蕾切尔·德·拉·托尔 Rachel de la Torre
       尼基·陶起亚 Nicky Torchia
       罗伯特·约翰·加拉格尔 Robert John Gallagher
       汉克·罗杰森 Hank Rogerson
       阿尔顿·菲茨杰拉德·怀特 Alton Fitzgerald White
       本·霍兰兹沃思 Ben Hollandsworth
       瑞克·博兰德 Rick Bolander
       阿尔玛·奎尔沃 Alma Cuervo


◎简  介


  西奥-戴克13岁的时候,母亲带他参观纽约大都会博物馆,然而博物馆却发生了恐袭爆炸,导致母亲丧生,西奥却奇迹般幸存。这次悲剧改变了西奥的命运,从此他伴随悲痛与自责、振作与救赎逐渐长大。然而没有人知道的是,西奥悄悄收藏了一件那次事件的纪念物,那是他回忆起母亲时的唯一慰藉——一幅绘有小鸟被链条锁住的画儿——那正是所有人都以为早已在大都会博物馆大爆炸中化为乌有的世界名作《金翅雀》。
Video
ID : 1
Format : HEVC
Format/Info : High Efficiency Video Coding
Format profile : Main 10@L5@High
HDR format : Dolby Vision, Version 1.0, dvhe.05.06, BL+RPU
Codec ID : dvhe
Codec ID/Info : High Efficiency Video Coding with Dolby Vision
Duration : 2 h 29 min
Bit rate : 14.4 Mb/s
Width : 3 840 pixels
Height : 2 072 pixels
Display aspect ratio : 1.85:1
Frame rate mode : Constant
Frame rate : 23.976 (24000/1001) FPS
Color space : YUV
Chroma subsampling : 4:2:0
Bit depth : 10 bits
Bits/(Pixel*Frame) : 0.076
Stream size : 15.1 GiB (97%)
Default : Yes
Alternate group : 1
Encoded date : UTC 2022-05-16 18:38:17
Tagged date : UTC 2022-05-16 18:44:23
Codec configuration box : hvcC+dvcC

Audio
ID : 2
Format : AC-3
Format/Info : Audio Coding 3
Commercial name : Dolby Digital
Codec ID : ac-3
Duration : 2 h 29 min
Bit rate mode : Constant
Bit rate : 384 kb/s
Maximum bit rate : 406 kb/s
Channel(s) : 6 channels
Channel layout : L R C LFE Ls Rs
Sampling rate : 48.0 kHz
Frame rate : 31.250 FPS (1536 SPF)
Compression mode : Lossy
Stream size : 410 MiB (3%)
Title : English
Language : English
Service kind : Complete Main
Default : Yes
Alternate group : 1
Tagged date : UTC 2022-05-16 18:44:23

Text #1
ID : 3
Format : Timed Text
Codec ID : tx3g
Duration : 2 h 21 min
Bit rate mode : Variable
Bit rate : 64 b/s
Stream size : 66.6 KiB (0%)
Title : English
Language : English
Forced : No
Encoded date : UTC 2022-05-16 18:44:18
Tagged date : UTC 2022-05-16 18:44:23

Text #2
ID : 4
Format : Timed Text
Codec ID : tx3g
Duration : 2 h 29 min
Bit rate mode : Variable
Bit rate : 78 b/s
Stream size : 84.8 KiB (0%)
Title : Arabic
Language : Arabic
Forced : No
Encoded date : UTC 2022-05-16 18:44:18
Tagged date : UTC 2022-05-16 18:44:23

Text #3
ID : 5
Format : Timed Text
Codec ID : tx3g
Duration : 2 h 29 min
Bit rate mode : Variable
Bit rate : 74 b/s
Stream size : 81.2 KiB (0%)
Title : Bulgarian
Language : Bulgarian
Forced : No
Encoded date : UTC 2022-05-16 18:44:18
Tagged date : UTC 2022-05-16 18:44:23

Text #4
ID : 6
Format : Timed Text
Codec ID : tx3g
Duration : 2 h 29 min
Bit rate mode : Variable
Bit rate : 39 b/s
Stream size : 43.1 KiB (0%)
Title : 中文(粤语)
Language : 中文
Forced : No
Encoded date : UTC 2022-05-16 18:44:18
Tagged date : UTC 2022-05-16 18:44:23

Text #5
ID : 7
Format : Timed Text
Codec ID : tx3g
Duration : 2 h 29 min
Bit rate mode : Variable
Bit rate : 44 b/s
Stream size : 47.9 KiB (0%)
Title : 中文(简体)
Language : 中文
Forced : No
Encoded date : UTC 2022-05-16 18:44:18
Tagged date : UTC 2022-05-16 18:44:23

Text #6
ID : 8
Format : Timed Text
Codec ID : tx3g
Duration : 2 h 29 min
Bit rate mode : Variable
Bit rate : 39 b/s
Stream size : 42.3 KiB (0%)
Title : 中文(繁体)
Language : 中文
Forced : No
Encoded date : UTC 2022-05-16 18:44:18
Tagged date : UTC 2022-05-16 18:44:23


Text #7
ID : 9
Format : Timed Text
Codec ID : tx3g
Duration : 2 h 29 min
Bit rate mode : Variable
Bit rate : 49 b/s
Stream size : 53.4 KiB (0%)
Title : Czech
Language : Czech
Forced : No
Encoded date : UTC 2022-05-16 18:44:19
Tagged date : UTC 2022-05-16 18:44:23

Text #8
ID : 10
Format : Timed Text
Codec ID : tx3g
Duration : 2 h 29 min
Bit rate mode : Variable
Bit rate : 49 b/s
Stream size : 54.0 KiB (0%)
Title : Danish
Language : Danish
Forced : No
Encoded date : UTC 2022-05-16 18:44:19
Tagged date : UTC 2022-05-16 18:44:23

Text #9
ID : 11
Format : Timed Text
Codec ID : tx3g
Duration : 2 h 29 min
Bit rate mode : Variable
Bit rate : 45 b/s
Stream size : 49.7 KiB (0%)
Title : Dutch
Language : Dutch
Forced : No
Encoded date : UTC 2022-05-16 18:44:19
Tagged date : UTC 2022-05-16 18:44:23

Text #10
ID : 12
Format : Timed Text
Codec ID : tx3g
Duration : 2 h 29 min
Bit rate mode : Variable
Bit rate : 50 b/s
Stream size : 55.2 KiB (0%)
Title : Estonian
Language : Estonian
Forced : No
Encoded date : UTC 2022-05-16 18:44:19
Tagged date : UTC 2022-05-16 18:44:23

Text #11
ID : 13
Format : Timed Text
Codec ID : tx3g
Duration : 2 h 29 min
Bit rate mode : Variable
Bit rate : 53 b/s
Stream size : 57.7 KiB (0%)
Title : Finnish
Language : Finnish
Forced : No
Encoded date : UTC 2022-05-16 18:44:19
Tagged date : UTC 2022-05-16 18:44:23

Text #12
ID : 14
Format : Timed Text
Codec ID : tx3g
Duration : 2 h 29 min
Bit rate mode : Variable
Bit rate : 51 b/s
Stream size : 55.2 KiB (0%)
Title : French
Language : French
Forced : No
Encoded date : UTC 2022-05-16 18:44:19
Tagged date : UTC 2022-05-16 18:44:23

Text #13
ID : 15
Format : Timed Text
Codec ID : tx3g
Duration : 2 h 21 min
Bit rate mode : Variable
Bit rate : 61 b/s
Stream size : 63.3 KiB (0%)
Title : German
Language : German
Forced : No
Encoded date : UTC 2022-05-16 18:44:19
Tagged date : UTC 2022-05-16 18:44:23

Text #14
ID : 16
Format : Timed Text
Codec ID : tx3g
Duration : 2 h 29 min
Bit rate mode : Variable
Bit rate : 77 b/s
Stream size : 84.2 KiB (0%)
Title : Greek
Language : Greek
Forced : No
Encoded date : UTC 2022-05-16 18:44:19
Tagged date : UTC 2022-05-16 18:44:23

Text #15
ID : 17
Format : Timed Text
Codec ID : tx3g
Duration : 2 h 29 min
Bit rate mode : Variable
Bit rate : 73 b/s
Stream size : 79.5 KiB (0%)
Title : Hebrew
Language : Hebrew
Forced : No
Encoded date : UTC 2022-05-16 18:44:19
Tagged date : UTC 2022-05-16 18:44:23

Text #16
ID : 18
Format : Timed Text
Codec ID : tx3g
Duration : 2 h 29 min
Bit rate mode : Variable
Bit rate : 46 b/s
Stream size : 50.6 KiB (0%)
Title : Hungarian
Language : Hungarian
Forced : No
Encoded date : UTC 2022-05-16 18:44:20
Tagged date : UTC 2022-05-16 18:44:23

Text #17
ID : 19
Format : Timed Text
Codec ID : tx3g
Duration : 2 h 29 min
Bit rate mode : Variable
Bit rate : 54 b/s
Stream size : 58.6 KiB (0%)
Title : Italian
Language : Italian
Forced : No
Encoded date : UTC 2022-05-16 18:44:20
Tagged date : UTC 2022-05-16 18:44:23

Text #18
ID : 20
Format : Timed Text
Codec ID : tx3g
Duration : 2 h 21 min
Bit rate mode : Variable
Bit rate : 48 b/s
Stream size : 49.6 KiB (0%)
Title : Japanese
Language : Japanese
Forced : No
Encoded date : UTC 2022-05-16 18:44:20
Tagged date : UTC 2022-05-16 18:44:23

Text #19
ID : 21
Format : Timed Text
Codec ID : tx3g
Duration : 2 h 29 min
Bit rate mode : Variable
Bit rate : 62 b/s
Stream size : 68.0 KiB (0%)
Title : Korean
Language : Korean
Forced : No
Encoded date : UTC 2022-05-16 18:44:20
Tagged date : UTC 2022-05-16 18:44:23

Text #20
ID : 22
Format : Timed Text
Codec ID : tx3g
Duration : 2 h 29 min
Bit rate mode : Variable
Bit rate : 51 b/s
Stream size : 55.7 KiB (0%)
Title : Latvian
Language : Latvian
Forced : No
Encoded date : UTC 2022-05-16 18:44:20
Tagged date : UTC 2022-05-16 18:44:23

Text #21
ID : 23
Format : Timed Text
Codec ID : tx3g
Duration : 2 h 29 min
Bit rate mode : Variable
Bit rate : 49 b/s
Stream size : 53.6 KiB (0%)
Title : Lithuanian
Language : Lithuanian
Forced : No
Encoded date : UTC 2022-05-16 18:44:20
Tagged date : UTC 2022-05-16 18:44:23

Text #22
ID : 24
Format : Timed Text
Codec ID : tx3g
Duration : 2 h 29 min
Bit rate mode : Variable
Bit rate : 51 b/s
Stream size : 55.4 KiB (0%)
Title : Norwegian
Language : Norwegian
Forced : No
Encoded date : UTC 2022-05-16 18:44:20
Tagged date : UTC 2022-05-16 18:44:23

Text #23
ID : 25
Format : Timed Text
Codec ID : tx3g
Duration : 2 h 29 min
Bit rate mode : Variable
Bit rate : 52 b/s
Stream size : 56.9 KiB (0%)
Title : Polish
Language : Polish
Forced : No
Encoded date : UTC 2022-05-16 18:44:20
Tagged date : UTC 2022-05-16 18:44:23

Text #24
ID : 26
Format : Timed Text
Codec ID : tx3g
Duration : 2 h 29 min
Bit rate mode : Variable
Bit rate : 51 b/s
Stream size : 55.9 KiB (0%)
Title : Portuguese
Language : Portuguese
Forced : No
Encoded date : UTC 2022-05-16 18:44:21
Tagged date : UTC 2022-05-16 18:44:23

Text #25
ID : 27
Format : Timed Text
Codec ID : tx3g
Duration : 2 h 29 min
Bit rate mode : Variable
Bit rate : 50 b/s
Stream size : 54.9 KiB (0%)
Title : Portuguese
Language : Portuguese
Forced : No
Encoded date : UTC 2022-05-16 18:44:21
Tagged date : UTC 2022-05-16 18:44:23

Text #26
ID : 28
Format : Timed Text
Codec ID : tx3g
Duration : 2 h 29 min
Bit rate mode : Variable
Bit rate : 81 b/s
Stream size : 88.7 KiB (0%)
Title : Russian
Language : Russian
Forced : No
Encoded date : UTC 2022-05-16 18:44:21
Tagged date : UTC 2022-05-16 18:44:23

Text #27
ID : 29
Format : Timed Text
Codec ID : tx3g
Duration : 2 h 29 min
Bit rate mode : Variable
Bit rate : 48 b/s
Stream size : 52.3 KiB (0%)
Title : Slovenian
Language : Slovenian
Forced : No
Encoded date : UTC 2022-05-16 18:44:22
Tagged date : UTC 2022-05-16 18:44:23

Text #28
ID : 30
Format : Timed Text
Codec ID : tx3g
Duration : 2 h 29 min
Bit rate mode : Variable
Bit rate : 52 b/s
Stream size : 56.4 KiB (0%)
Title : Spanish
Language : Spanish
Forced : No
Encoded date : UTC 2022-05-16 18:44:22
Tagged date : UTC 2022-05-16 18:44:23

Text #29
ID : 31
Format : Timed Text
Codec ID : tx3g
Duration : 2 h 29 min
Bit rate mode : Variable
Bit rate : 51 b/s
Stream size : 55.7 KiB (0%)
Title : Spanish-EU
Language : Spanish
Forced : No
Encoded date : UTC 2022-05-16 18:44:22
Tagged date : UTC 2022-05-16 18:44:23

Text #30
ID : 32
Format : Timed Text
Codec ID : tx3g
Duration : 2 h 29 min
Bit rate mode : Variable
Bit rate : 53 b/s
Stream size : 57.9 KiB (0%)
Title : Swedish
Language : Swedish
Forced : No
Encoded date : UTC 2022-05-16 18:44:23
Tagged date : UTC 2022-05-16 18:44:23

Text #31
ID : 33
Format : Timed Text
Codec ID : tx3g
Duration : 2 h 29 min
Bit rate mode : Variable
Bit rate : 118 b/s
Stream size : 129 KiB (0%)
Title : Thai
Language : Thai
Forced : No
Encoded date : UTC 2022-05-16 18:44:23
Tagged date : UTC 2022-05-16 18:44:23

Text #32
ID : 34
Format : Timed Text
Codec ID : tx3g
Duration : 2 h 29 min
Bit rate mode : Variable
Bit rate : 51 b/s
Stream size : 55.5 KiB (0%)
Title : Turkish
Language : Turkish
Forced : No
Encoded date : UTC 2022-05-16 18:44:23
Tagged date : UTC 2022-05-16 18:44:23



资源速度为零或资源敏感被和谐时,推荐使用qBittorrent等下载软件,有条件的推荐115更好的下载软件!

下载地址:


游客,如果您要查看本帖隐藏内容请回复

游客,如果您要查看本帖隐藏内容请回复

游客,如果您要查看本帖隐藏内容请回复

游客,如果您要查看本帖隐藏内容请回复





上一篇:暗夜博士:莫比亚斯 (附字幕) / Morbius (2022) 4k高清版本下载
下一篇:亿万富翁 / Kajillionaire (2020) 4k高清版本下载
回复

使用道具 举报

1

主题

1432

帖子

4152

积分

4K家园VIP

Rank: 9Rank: 9Rank: 9

积分
4152
发表于 2022-5-17 10:20:17 来自手机 | 显示全部楼层
垃圾内容,路过为证。
回复 支持 反对

使用道具 举报

0

主题

4

帖子

15

积分

新手上路

Rank: 1

积分
15
发表于 2022-5-17 17:54:27 | 显示全部楼层
感谢分享
回复

使用道具 举报

4

主题

24

帖子

948

积分

4K家园VIP

Rank: 9Rank: 9Rank: 9

积分
948
发表于 2022-5-18 22:57:04 | 显示全部楼层
感谢分享
回复

使用道具 举报

2

主题

1579

帖子

4309

积分

4K家园VIP

Rank: 9Rank: 9Rank: 9

积分
4309
发表于 2022-5-20 13:49:56 | 显示全部楼层
试试看吧
回复 支持 反对

使用道具 举报

4

主题

1367

帖子

4112

积分

4K家园VIP

Rank: 9Rank: 9Rank: 9

积分
4112
发表于 2022-6-2 18:15:29 | 显示全部楼层
你们要是有4K资源记得分享,别小气
回复 支持 反对

使用道具 举报

0

主题

1406

帖子

4064

积分

4K家园VIP

Rank: 9Rank: 9Rank: 9

积分
4064
发表于 2022-6-4 13:56:13 来自手机 | 显示全部楼层
我了个去,顶了
回复 支持 反对

使用道具 举报

2

主题

1342

帖子

3840

积分

4K家园VIP

Rank: 9Rank: 9Rank: 9

积分
3840
发表于 2022-6-8 00:09:44 | 显示全部楼层
看帖要回,回帖才健康,在踩踩,楼主辛苦了!
回复 支持 反对

使用道具 举报

您需要登录后才可以回帖 登录 | 立即注册

本版积分规则

精彩图文
Archiver|手机版|TAG|Sitemap|新帖|专题|联系我们:邮箱: 4kjia.com@gmail.com   

4k家园   ©2019