我是遗物整理师 (2022) / 第一季全10集/4K高清版本下载

[复制链接]

154

主题

175

帖子

1746

积分

版主

Rank: 7Rank: 7Rank: 7

积分
1746
 楼主| 发表于 2022-5-17 15:13:25 | 显示全部楼层 |阅读模式
bfb320141e99d00da4b532da4c578129_副本.jpg

◎译  名 Move to Heaven:我是遗物整理师
◎片  名 무브 투 헤븐: 나는 유품 정리사입니다
◎年  代 2021
◎产  地 韩国
◎类  别 剧情
◎语  言 韩语
◎上映日期 2021-05-14(韩国)
◎IMDb评分  8.6/10 from 5337 users
◎IMDb链接  https://www.imdb.com/title/tt11052470/
◎豆瓣评分 9.1/10 (62826人评价)
◎豆瓣链接 https://movie.douban.com/subject/34929977/
◎集  数 10
◎片  长 45分钟
◎导  演 金成浩 Sung-ho Kim
◎编  剧 尹智莲 Ji-ryun Yoon
◎演  员 李帝勋 Je-hoon Lee
       汤峻相 Joon-sang Tang
       洪承熙 Hong Seung Hee
       李宰旭 Jae-wook Lee
       崔秀英 Sooyoung Choi
       池珍熙 Jin-hee Ji
       林元熙 Won-hie Lim
       梁洪硕 Yang Hong-seok
       尹智慧 Ji-hye Yun
       柳善 Seon Yu
       于东勋 Dong-hoonYu
       金度言 Do-yeon Kim
       权秀贤 Soo-hyun Kwon
       郑英珠 Young-ju Jung
       李文植 Mun-shik Lee
       郑锡勇 Seok-yong Jeong
       李来 Re Lee
       李乌 Eol Lee
       朴志艺 Ji-ye Park
       李珠实 Ju-shil Lee
       郑素利 So-ri Jung
       李正恩 Lee Jeong-eun
       洪镇基 Jin-gi Hong
       郑爱延 Ae-Yeon Jeong
       安智浩 Ji-ho Ahn
       吴凯文 Kevin Oh
       朴晨雅 Shin-Ah Park
       李基英 Ki-young Lee
       郑栋焕 Dong-hwan Jeong
       韩叙真 Han Seo Jin
       姜爱信 Ae-shim Kang
       尹朱尚 Ju-sang Yun
       金周妍 ???
       申秀吾 Shin Soo Oh
       金哲允 Cheol-yoon Kim
       洪瑞俊 Seo-joon Hong

◎简  介

  Move to Heaven:我是遗物整理师「有人死去时,我的工作就开始了」每个死亡背后都有一段故事我们将娓娓道来这些不为人知的故事,让它们永远流传现在,让我们协助您展开最后一趟旅程。《Move to Heaven:我是遗物整理师》,Netflix 独家

Video
ID : 1
Format : HEVC
Format/Info : High Efficiency Video Coding
Format profile : Main 10@L5@Main
HDR format : Dolby Vision, Version 1.0, dvhe.08.06, BL+RPU, HDR10 compatible / SMPTE ST 2086, HDR10 compatible
Codec ID : V_MPEGH/ISO/HEVC
Duration : 1 h 0 min
Bit rate : 13.3 Mb/s
Width : 3 840 pixels
Height : 2 160 pixels
Display aspect ratio : 16:9
Frame rate mode : Constant
Frame rate : 23.976 (24000/1001) FPS
Color space : YUV
Chroma subsampling : 4:2:0 (Type 2)
Bit depth : 10 bits
Bits/(Pixel*Frame) : 0.067
Stream size : 5.60 GiB (95%)
Default : Yes
Forced : No
Color range : Limited
Color primaries : BT.2020
Transfer characteristics : PQ
Matrix coefficients : BT.2020 non-constant
Mastering display color primaries : Display P3
Mastering display luminance : min: 0.0001 cd/m2, max: 1000 cd/m2
Maximum Content Light Level : 1064 cd/m2
Maximum Frame-Average Light Level : 233 cd/m2

Audio
ID : 2
Format : E-AC-3
Format/Info : Enhanced AC-3
Commercial name : Dolby Digital Plus
Codec ID : A_EAC3
Duration : 1 h 1 min
Bit rate mode : Constant
Bit rate : 640 kb/s
Channel(s) : 6 channels
Channel layout : L R C LFE Ls Rs
Sampling rate : 48.0 kHz
Frame rate : 31.250 FPS (1536 SPF)
Compression mode : Lossy
Stream size : 283 MiB (5%)
Language : Korean
Service kind : Complete Main
Default : Yes
Forced : No

Text #1
ID : 3
Format : UTF-8
Codec ID : S_TEXT/UTF8
Codec ID/Info : UTF-8 Plain Text
Duration : 1 h 0 min
Bit rate : 0 b/s
Count of elements : 5
Stream size : 95.0 Bytes (0%)
Title : Forced
Language : Korean
Default : Yes
Forced : Yes

Text #2
ID : 4
Format : UTF-8
Codec ID : S_TEXT/UTF8
Codec ID/Info : UTF-8 Plain Text
Duration : 1 h 0 min
Bit rate : 72 b/s
Count of elements : 854
Stream size : 32.0 KiB (0%)
Title : SDH
Language : Korean
Default : No
Forced : No

Text #3
ID : 5
Format : UTF-8
Codec ID : S_TEXT/UTF8
Codec ID/Info : UTF-8 Plain Text
Duration : 1 h 0 min
Bit rate : 35 b/s
Count of elements : 571
Stream size : 15.7 KiB (0%)
Language : German
Default : No
Forced : No

Text #4
ID : 6
Format : UTF-8
Codec ID : S_TEXT/UTF8
Codec ID/Info : UTF-8 Plain Text
Duration : 59 min 53 s
Bit rate : 37 b/s
Count of elements : 662
Stream size : 16.6 KiB (0%)
Language : English
Default : No
Forced : No

Text #5
ID : 7
Format : UTF-8
Codec ID : S_TEXT/UTF8
Codec ID/Info : UTF-8 Plain Text
Duration : 1 h 0 min
Bit rate : 36 b/s
Count of elements : 552
Stream size : 16.0 KiB (0%)
Language : French
Default : No
Forced : No

Text #6
ID : 8
Format : UTF-8
Codec ID : S_TEXT/UTF8
Codec ID/Info : UTF-8 Plain Text
Duration : 1 h 0 min
Bit rate : 57 b/s
Count of elements : 554
Stream size : 25.2 KiB (0%)
Language : Russian
Default : No
Forced : No

Text #7
ID : 9
Format : UTF-8
Codec ID : S_TEXT/UTF8
Codec ID/Info : UTF-8 Plain Text
Duration : 1 h 0 min
Bit rate : 57 b/s
Count of elements : 564
Stream size : 25.2 KiB (0%)
Language : Ukrainian
Default : No
Forced : No

Menu
00:00:00.000 : enart 01
00:56:16.450 : en:Credits
下载地址:

游客,如果您要查看本帖隐藏内容请回复

游客,如果您要查看本帖隐藏内容请回复





上一篇:聊天记录 (2022)/第一季全12集/4K高清版本下载
下一篇:坎迪 / Candy (2022) / 第一季全5集/4K高清版本下载
回复

使用道具 举报

2

主题

1419

帖子

4109

积分

中级会员

Rank: 4

积分
4109
发表于 2022-5-17 15:13:56 | 显示全部楼层
试试先,好用再说
回复 支持 反对

使用道具 举报

3

主题

1781

帖子

4891

积分

中级会员

Rank: 4

积分
4891
发表于 2022-5-17 16:53:54 | 显示全部楼层
回复 支持 反对

使用道具 举报

0

主题

4

帖子

15

积分

新手上路

Rank: 1

积分
15
发表于 2022-5-17 17:52:35 | 显示全部楼层
顶,谢谢楼主分享
回复 支持 反对

使用道具 举报

0

主题

1458

帖子

4188

积分

4K家园VIP

Rank: 9Rank: 9Rank: 9

积分
4188
发表于 2022-5-18 13:18:18 来自手机 | 显示全部楼层
啊啊啊啊啊啊啊啊啊啊啊
回复 支持 反对

使用道具 举报

3

主题

1295

帖子

3895

积分

4K家园VIP

Rank: 9Rank: 9Rank: 9

积分
3895
发表于 2022-5-18 20:03:19 | 显示全部楼层
楼下的接上
回复 支持 反对

使用道具 举报

5

主题

1674

帖子

4600

积分

4K家园VIP

Rank: 9Rank: 9Rank: 9

积分
4600
发表于 2022-5-19 00:07:08 | 显示全部楼层
路过的帮顶
回复 支持 反对

使用道具 举报

0

主题

6

帖子

60

积分

新手上路

Rank: 1

积分
60
发表于 2022-5-19 10:27:35 | 显示全部楼层
有字幕吗
回复

使用道具 举报

0

主题

1

帖子

6

积分

新手上路

Rank: 1

积分
6
发表于 2022-5-22 16:43:35 来自手机 | 显示全部楼层
下载看看
回复

使用道具 举报

0

主题

8

帖子

31

积分

新手上路

Rank: 1

积分
31
发表于 2022-5-28 14:36:13 | 显示全部楼层
我想要这个遗物整理师的资源
回复 支持 反对

使用道具 举报

您需要登录后才可以回帖 登录 | 立即注册

本版积分规则

精彩图文
Archiver|手机版|TAG|Sitemap|新帖|专题|联系我们:邮箱: 4kjia.com@gmail.com   

4k家园   ©2019