甜蜜家园 / Sweet.Home (2020) / 第一季全10集/4K高清版本下载

[复制链接]

154

主题

175

帖子

1746

积分

版主

Rank: 7Rank: 7Rank: 7

积分
1746
 楼主| 发表于 2022-5-18 11:05:07 | 显示全部楼层 |阅读模式
p2628425414_副本.jpg

◎译  名 甜蜜家园 / 内冷外热/Sweet Home
◎片  名 스위트홈
◎年  代 2020
◎产  地 韩国
◎类  别 剧情/惊悚
◎语  言 韩语
◎上映日期 2020-12-18(韩国)
◎IMDb评分  7.3/10 from 355 users
◎IMDb链接  https://www.imdb.com/title/tt11612120/
◎豆瓣评分 8.3/10 from 5006 users
◎豆瓣链接 https://douban.com/subject/34858078/
◎集  数 10
◎导  演 李应福 Eung-bok Lee
◎主  演 宋康 Kang Song
        李阵郁 Jin-wook Lee
        李是英 Si-young Lee
        李到晛 Do-hyun Lee
        朴珪瑛 Gyoo-yeong Park
        高敏诗 Min-si Go
        高允贞 Yoon Jung Go
        金甲洙 Kap-su Kim
        金伊敬 Yi-kyung Kim


◎简  介


  《Sweet Home》作为惊悚漫画在网路上受到许多读者喜爱,讲述的是悲观地面对绝望世界,并自行孤立的一个少年,走出外界的故事。
特效字幕来自字幕库RYANLAUN大佬,在此鸣谢!
特效我在原基础上做了相应的修改,10集全纯净版,无广告,集数过多我就不传图了!

Video
ID : 1
Format : HEVC
Format/Info : High Efficiency Video Coding
Format profile : Main 10@L5@Main
Codec ID : V_MPEGH/ISO/HEVC
Duration : 59 min 12 s
Bit rate : 11.8 Mb/s
Width : 3 840 pixels
Height : 2 160 pixels
Display aspect ratio : 16:9
Frame rate mode : Constant
Frame rate : 23.976 (24000/1001) FPS
Color space : YUV
Chroma subsampling : 4:2:0
Bit depth : 10 bits
Bits/(Pixel*Frame) : 0.059
Stream size : 4.87 GiB (95%)
Default : Yes
Forced : No
Color range : Limited
Color primaries : BT.709
Transfer characteristics : BT.709
Matrix coefficients : BT.709

Audio
ID : 2
Format : E-AC-3
Format/Info : Enhanced AC-3
Commercial name : Dolby Digital Plus
Codec ID : A_EAC3
Duration : 59 min 12 s
Bit rate mode : Constant
Bit rate : 640 kb/s
Channel(s) : 6 channels
Channel layout : L R C LFE Ls Rs
Sampling rate : 48.0 kHz
Frame rate : 31.250 FPS (1536 SPF)
Compression mode : Lossy
Stream size : 271 MiB (5%)
Language : Korean
Service kind : Complete Main
Default : Yes
Forced : No

Text #1
ID : 3
Format : UTF-8
Codec ID : S_TEXT/UTF8
Codec ID/Info : UTF-8 Plain Text
Duration : 4 s 46 ms
Bit rate : 69 b/s
Count of elements : 1
Stream size : 35.0 Bytes (0%)
Title : Forced
Language : Korean
Default : Yes
Forced : Yes

Text #2
ID : 4
Format : UTF-8
Codec ID : S_TEXT/UTF8
Codec ID/Info : UTF-8 Plain Text
Duration : 55 min 2 s
Bit rate : 46 b/s
Count of elements : 573
Stream size : 18.7 KiB (0%)
Title : SDH
Language : Korean
Default : No
Forced : No

Text #3
ID : 5
Format : UTF-8
Codec ID : S_TEXT/UTF8
Codec ID/Info : UTF-8 Plain Text
Duration : 57 min 25 s
Bit rate : 22 b/s
Count of elements : 414
Stream size : 9.33 KiB (0%)
Language : German
Default : No
Forced : No

Text #4
ID : 6
Format : UTF-8
Codec ID : S_TEXT/UTF8
Codec ID/Info : UTF-8 Plain Text
Duration : 57 min 2 s
Bit rate : 23 b/s
Count of elements : 414
Stream size : 9.62 KiB (0%)
Language : English
Default : No
Forced : No

Text #5
ID : 7
Format : UTF-8
Codec ID : S_TEXT/UTF8
Codec ID/Info : UTF-8 Plain Text
Duration : 57 min 19 s
Bit rate : 34 b/s
Count of elements : 629
Stream size : 14.7 KiB (0%)
Title : SDH
Language : English
Default : No
Forced : No

Text #6
ID : 8
Format : UTF-8
Codec ID : S_TEXT/UTF8
Codec ID/Info : UTF-8 Plain Text
Duration : 57 min 29 s
Bit rate : 23 b/s
Count of elements : 415
Stream size : 9.87 KiB (0%)
Language : French
Default : No
Forced : No

Text #7
ID : 9
Format : UTF-8
Codec ID : S_TEXT/UTF8
Codec ID/Info : UTF-8 Plain Text
Duration : 57 min 25 s
Bit rate : 35 b/s
Count of elements : 400
Stream size : 14.8 KiB (0%)
Language : Russian
Default : No
Forced : No

Text #8
ID : 10
Format : UTF-8
Codec ID : S_TEXT/UTF8
Codec ID/Info : UTF-8 Plain Text
Duration : 57 min 25 s
Bit rate : 35 b/s
Count of elements : 416
Stream size : 14.8 KiB (0%)
Language : Ukrainian
Default : No
Forced : No

Menu
00:00:00.000 : enart 01
00:01:47.500 : en:Intro
00:02:30.250 : enart 02
00:55:07.450 : en:Credits


下载地址:

游客,如果您要查看本帖隐藏内容请回复





上一篇:他的秘密生活 (简繁中字) (2022) / 第一季全8集/4K高清版本下载
下一篇:全裸导演/The.Naked.Director (2021)/第二季全8集/4K高清版本下载
回复

使用道具 举报

3

主题

1709

帖子

4721

积分

4K家园VIP

Rank: 9Rank: 9Rank: 9

积分
4721
发表于 2022-5-18 11:05:18 | 显示全部楼层
鼎力支持!!
回复 支持 反对

使用道具 举报

1

主题

1322

帖子

3986

积分

4K家园VIP

Rank: 9Rank: 9Rank: 9

积分
3986
发表于 2022-5-23 05:10:43 | 显示全部楼层
楼下的接上
回复 支持 反对

使用道具 举报

0

主题

1187

帖子

3575

积分

4K家园VIP

Rank: 9Rank: 9Rank: 9

积分
3575
发表于 2022-5-29 16:45:16 | 显示全部楼层
前排支持下
回复 支持 反对

使用道具 举报

54

主题

1479

帖子

4283

积分

4K家园VIP

Rank: 9Rank: 9Rank: 9

积分
4283
发表于 2022-5-31 18:10:24 | 显示全部楼层
纯粹路过,没任何兴趣,仅仅是看在老用户份上回复一下
回复 支持 反对

使用道具 举报

1

主题

1636

帖子

4530

积分

4K家园VIP

Rank: 9Rank: 9Rank: 9

积分
4530
发表于 2022-6-1 06:34:49 | 显示全部楼层
感谢楼主发帖,前排顶起
回复 支持 反对

使用道具 举报

0

主题

6

帖子

60

积分

新手上路

Rank: 1

积分
60
发表于 2022-6-2 16:53:38 | 显示全部楼层
感谢分享
回复

使用道具 举报

0

主题

2

帖子

12

积分

新手上路

Rank: 1

积分
12
发表于 2022-6-6 14:46:28 来自手机 | 显示全部楼层
好的,不错
回复

使用道具 举报

0

主题

2

帖子

12

积分

新手上路

Rank: 1

积分
12
发表于 2022-6-6 14:47:21 来自手机 | 显示全部楼层
好的,不错
回复

使用道具 举报

0

主题

1

帖子

10

积分

新手上路

Rank: 1

积分
10
发表于 2022-6-11 17:26:22 | 显示全部楼层
可以,支持下
回复 支持 反对

使用道具 举报

您需要登录后才可以回帖 登录 | 立即注册

本版积分规则

精彩图文
Archiver|手机版|TAG|Sitemap|新帖|专题|联系我们:邮箱: 4kjia.com@gmail.com   

4k家园   ©2019