全裸导演/The.Naked.Director (2021)/第二季全8集/4K高清版本下载

[复制链接]

203

主题

226

帖子

2233

积分

版主

Rank: 7Rank: 7Rank: 7

积分
2233
 楼主| 发表于 2022-5-18 11:15:24 | 显示全部楼层 |阅读模式
本帖最后由 美剧小虾 于 2022-5-25 11:30 编辑

p2642504702_副本.png

◎译  名 全裸导演 第二季/全裸监督(港)/AV帝王(台)
◎片  名 全裸監督 シーズン2
◎年  代 2021
◎产  地 日本
◎类  别 剧情/喜剧/情色/传记
◎语  言 日语
◎上映日期 2021-06-24(日本)
◎IMDb评分  7.7/10 from 6054 users
◎IMDb链接  https://www.imdb.com/title/tt10477528/
◎豆瓣评分 7.7/10 from 20194 users
◎豆瓣链接 https://douban.com/subject/34796281/
◎集  数 8
◎导  演 武正晴 Masaharu Take
◎编  剧 山田能龙 Yoshitatsu Yamada / 小寺和久 Kazuhisa Kotera
◎主  演 山田孝之 Yamada Takayuki
       满岛真之介 Shin'nosuke Mitsushima
       森田望智 Misato Morita
       玉山铁二 Tetsuji Tamayama
       恒松祐里 Yuri Tsunematsu
       柄本时生 Tokio Emoto
       宫泽理惠 Rie Miyazawa
       伊藤沙莉 Sairi Itô
       富手麻妙 Ami Tomite
       后藤刚范 Takenori Gotô
       小雪 Koyuki
       泷正则 Pierre Taki
       中川雅也 Lily Franky
       国村隼 Jun Kunimura
       渡边大知 Daichi Watanabe
        Megumi
       西内玛利亚 Mariya Nishiuchi
       笠松将 Sho Kasamatsu
       增田有华 Yuka Masuda
       室井滋 Shigeru Muroi
       吉田荣作 Eisaku Yoshida
       伊原刚志 Tsuyoshi Ihara
       石桥莲司 Renji Ishibashi
       中村伦也 Tomoya Nakamura


◎简  介


  根据本桥信宏的纪实小说《全裸导演 村西透传》改编,山田孝之饰演的村西透是日本颇有争议的成人导演,在日本泡沫经济时代有“色情皇帝”的称号,更被认为是日本成人业中准纪录片风格的创造者之一。

Video
ID : 1
Format : HEVC
Format/Info : High Efficiency Video Coding
Format profile : Main 10@L5@Main
HDR format : Dolby Vision, Version 1.0, dvhe.08.06, BL+RPU, HDR10 compatible / SMPTE ST 2086, HDR10 compatible
Codec ID : V_MPEGH/ISO/HEVC
Duration : 55 min 54 s
Bit rate : 15.6 Mb/s
Width : 3 840 pixels
Height : 2 160 pixels
Display aspect ratio : 16:9
Frame rate mode : Constant
Frame rate : 24.000 FPS
Color space : YUV
Chroma subsampling : 4:2:0 (Type 2)
Bit depth : 10 bits
Bits/(Pixel*Frame) : 0.078
Stream size : 6.08 GiB (95%)
Default : Yes
Forced : No
Color range : Limited
Color primaries : BT.2020
Transfer characteristics : PQ
Matrix coefficients : BT.2020 non-constant
Mastering display color primaries : Display P3
Mastering display luminance : min: 0.0001 cd/m2, max: 1000 cd/m2
Maximum Content Light Level : 883 cd/m2
Maximum Frame-Average Light Level : 554 cd/m2

Audio
ID : 2
Format : E-AC-3 JOC
Format/Info : Enhanced AC-3 with Joint Object Coding
Commercial name : Dolby Digital Plus with Dolby Atmos
Codec ID : A_EAC3
Duration : 57 min 12 s
Bit rate mode : Constant
Bit rate : 768 kb/s
Channel(s) : 6 channels
Channel layout : L R C LFE Ls Rs
Sampling rate : 48.0 kHz
Frame rate : 31.250 FPS (1536 SPF)
Compression mode : Lossy
Stream size : 314 MiB (5%)
Language : Japanese
Service kind : Complete Main
Default : Yes
Forced : No
Complexity index : 16
Number of dynamic objects : 15
Bed channel count : 1 channel
Bed channel configuration : LFE

Text #1
ID : 3
Format : UTF-8
Codec ID : S_TEXT/UTF8
Codec ID/Info : UTF-8 Plain Text
Duration : 2 s 750 ms
Bit rate : 110 b/s
Count of elements : 1
Stream size : 38.0 Bytes (0%)
Title : Forced
Language : Japanese
Default : Yes
Forced : Yes

Text #2
ID : 4
Format : UTF-8
Codec ID : S_TEXT/UTF8
Codec ID/Info : UTF-8 Plain Text
Duration : 55 min 36 s
Bit rate : 75 b/s
Count of elements : 667
Stream size : 30.8 KiB (0%)
Title : SDH
Language : Japanese
Default : No
Forced : No

Text #3
ID : 5
Format : UTF-8
Codec ID : S_TEXT/UTF8
Codec ID/Info : UTF-8 Plain Text
Duration : 55 min 31 s
Bit rate : 44 b/s
Count of elements : 596
Stream size : 18.3 KiB (0%)
Language : German
Default : No
Forced : No

Text #4
ID : 6
Format : UTF-8
Codec ID : S_TEXT/UTF8
Codec ID/Info : UTF-8 Plain Text
Duration : 55 min 31 s
Bit rate : 43 b/s
Count of elements : 596
Stream size : 17.5 KiB (0%)
Language : English
Default : No
Forced : No

Text #5
ID : 7
Format : UTF-8
Codec ID : S_TEXT/UTF8
Codec ID/Info : UTF-8 Plain Text
Duration : 55 min 35 s
Bit rate : 61 b/s
Count of elements : 764
Stream size : 25.2 KiB (0%)
Title : SDH
Language : English
Default : No
Forced : No

Text #6
ID : 8
Format : UTF-8
Codec ID : S_TEXT/UTF8
Codec ID/Info : UTF-8 Plain Text
Duration : 55 min 31 s
Bit rate : 42 b/s
Count of elements : 597
Stream size : 17.5 KiB (0%)
Language : French
Default : No
Forced : No

Text #7
ID : 9
Format : UTF-8
Codec ID : S_TEXT/UTF8
Codec ID/Info : UTF-8 Plain Text
Duration : 55 min 31 s
Bit rate : 70 b/s
Count of elements : 597
Stream size : 28.7 KiB (0%)
Language : Russian
Default : No
Forced : No

Text #8
ID : 10
Format : UTF-8
Codec ID : S_TEXT/UTF8
Codec ID/Info : UTF-8 Plain Text
Duration : 55 min 31 s
Bit rate : 61 b/s
Count of elements : 596
Stream size : 24.9 KiB (0%)
Language : Ukrainian
Default : No
Forced : No

Menu
00:00:00.000 : enart 01
00:02:08.500 : en:Intro
00:02:58.250 : enart 02
00:55:43.450 : en:Credits

下载地址:

游客,如果您要查看本帖隐藏内容请回复

游客,如果您要查看本帖隐藏内容请回复





上一篇:甜蜜家园 / Sweet.Home (2020) / 第一季全10集/4K高清版本下载
下一篇:全裸导演(简繁中字)(2019)/第一季全8集/4K高清版本下载
回复

使用道具 举报

49

主题

1482

帖子

4272

积分

4K家园VIP

Rank: 9Rank: 9Rank: 9

积分
4272
发表于 2022-5-18 11:16:19 | 显示全部楼层
元芳你怎么看?
回复 支持 反对

使用道具 举报

0

主题

1

帖子

6

积分

新手上路

Rank: 1

积分
6
发表于 2022-5-18 14:05:55 | 显示全部楼层
haoba.geigelianjie.
回复 支持 反对

使用道具 举报

0

主题

67

帖子

1840

积分

注册会员

Rank: 2

积分
1840
发表于 2022-5-18 18:18:33 | 显示全部楼层
值得收藏,感谢分享
回复 支持 反对

使用道具 举报

0

主题

2

帖子

18

积分

4K家园VIP

Rank: 9Rank: 9Rank: 9

积分
18
发表于 2022-5-19 20:24:59 | 显示全部楼层
能有4k版本,太好了,谢谢资源
回复 支持 反对

使用道具 举报

2

主题

1398

帖子

4218

积分

4K家园VIP

Rank: 9Rank: 9Rank: 9

积分
4218
发表于 2022-5-20 10:06:43 | 显示全部楼层
我也顶起出售广告位
回复 支持 反对

使用道具 举报

0

主题

1

帖子

6

积分

新手上路

Rank: 1

积分
6
发表于 2022-5-20 18:33:47 来自手机 | 显示全部楼层
好的,谢谢你们给我送来的东西
回复 支持 反对

使用道具 举报

0

主题

1

帖子

6

积分

新手上路

Rank: 1

积分
6
发表于 2022-5-21 00:04:18 来自手机 | 显示全部楼层
hdjendjfjfn
回复 支持 反对

使用道具 举报

56

主题

1541

帖子

4479

积分

4K家园VIP

Rank: 9Rank: 9Rank: 9

积分
4479
发表于 2022-5-21 12:50:08 | 显示全部楼层
广告位,,坐下看看
回复 支持 反对

使用道具 举报

2

主题

1171

帖子

3531

积分

4K家园VIP

Rank: 9Rank: 9Rank: 9

积分
3531
发表于 2022-5-24 02:35:33 | 显示全部楼层
前排顶,很好!
回复 支持 反对

使用道具 举报

您需要登录后才可以回帖 登录 | 立即注册

本版积分规则

精彩图文
Archiver|手机版|TAG|Sitemap|新帖|专题|联系我们:邮箱: 4kjia.com@gmail.com   

4k家园   ©2019