全裸导演(简繁中字)(2019)/第一季全8集/4K高清版本下载

[复制链接]

203

主题

226

帖子

2233

积分

版主

Rank: 7Rank: 7Rank: 7

积分
2233
 楼主| 发表于 2022-5-18 11:24:15 | 显示全部楼层 |阅读模式

p2567773290_副本.jpg

◎译  名 全裸导演/AV帝王(台)/The Naked Director/全裸监督(港)
◎片  名 全裸監督
◎年  代 2019
◎产  地 日本
◎类  别 剧情
◎语  言 日语
◎上映日期 2019-08-08(日本)
◎IMDb评分  7.7/10 from 6054 users
◎IMDb链接  https://www.imdb.com/title/tt10477528/
◎豆瓣评分 7.9/10 from 74027 users
◎豆瓣链接 https://movie.douban.com/subject/30360724/
◎集  数 8
◎导  演 武正晴 Masaharu Take / 河合勇人 Hayato Kawai / 内田英治 Eiji Uchida
◎编  剧 本桥信宏 Nobuhiro Motohashi
◎主  演 山田孝之 Yamada Takayuki
       满岛真之介 Shin'nosuke Mitsushima
       玉山铁二 Tetsuji Tamayama
       柄本时生 Tokio Emoto
       伊藤沙莉 Sairi Itô
       富手麻妙 Ami Tomite
       后藤刚范 Takenori Gotô
       吉田钢太郎 Kôtarô Yoshida
       板尾创路 Itsuji Itao
       余贵美子 Kimiko Yo
       小雪 Koyuki
       中川雅也 Lily Franky
       国村隼 Jun Kunimura
       石桥凌 Ryo Ishibashi


◎简  介


  山田孝之主演Netflix原创电视剧《全裸监督》。他在剧中饰演有7次犯罪前科,欠债50亿,被美国司法当局要求判处370年徒刑的“AV界帝王”村西透。2019年全世界190个国家配信~

Video
ID : 1
Format : HEVC
Format/Info : High Efficiency Video Coding
Format profile : Main 10@L5@Main
Codec ID : V_MPEGH/ISO/HEVC
Duration : 53 min 34 s
Bit rate : 11.3 Mb/s
Width : 3 840 pixels
Height : 2 160 pixels
Display aspect ratio : 16:9
Frame rate mode : Constant
Frame rate : 24.000 FPS
Color space : YUV
Chroma subsampling : 4:2:0
Bit depth : 10 bits
Bits/(Pixel*Frame) : 0.057
Stream size : 4.25 GiB (95%)
Default : Yes
Forced : No
Color range : Limited
Color primaries : BT.709
Transfer characteristics : BT.709
Matrix coefficients : BT.709

Audio
ID : 2
Format : E-AC-3
Format/Info : Enhanced AC-3
Commercial name : Dolby Digital Plus
Codec ID : A_EAC3
Duration : 53 min 34 s
Bit rate mode : Constant
Bit rate : 640 kb/s
Channel(s) : 6 channels
Channel layout : L R C LFE Ls Rs
Sampling rate : 48.0 kHz
Frame rate : 31.250 FPS (1536 SPF)
Compression mode : Lossy
Stream size : 245 MiB (5%)
Language : Japanese
Service kind : Complete Main
Default : Yes
Forced : No

Text #1
ID : 3
Format : UTF-8
Codec ID : S_TEXT/UTF8
Codec ID/Info : UTF-8 Plain Text
Duration : 2 s 333 ms
Bit rate : 130 b/s
Count of elements : 1
Stream size : 38.0 Bytes (0%)
Title : Forced
Language : Japanese
Default : Yes
Forced : Yes

Text #2
ID : 4
Format : UTF-8
Codec ID : S_TEXT/UTF8
Codec ID/Info : UTF-8 Plain Text
Duration : 52 min 35 s
Bit rate : 85 b/s
Count of elements : 710
Stream size : 33.0 KiB (0%)
Title : SDH
Language : Japanese
Default : No
Forced : No

Text #3
ID : 5
Format : UTF-8
Codec ID : S_TEXT/UTF8
Codec ID/Info : UTF-8 Plain Text
Duration : 52 min 53 s
Bit rate : 78 b/s
Count of elements : 604
Stream size : 30.5 KiB (0%)
Language : Arabic
Default : No
Forced : No

Text #4
ID : 6
Format : UTF-8
Codec ID : S_TEXT/UTF8
Codec ID/Info : UTF-8 Plain Text
Duration : 49 min 5 s
Bit rate : 46 b/s
Count of elements : 625
Stream size : 16.7 KiB (0%)
Language : Czech
Default : No
Forced : No

Text #5
ID : 7
Format : UTF-8
Codec ID : S_TEXT/UTF8
Codec ID/Info : UTF-8 Plain Text
Duration : 49 min 5 s
Bit rate : 46 b/s
Count of elements : 617
Stream size : 16.8 KiB (0%)
Language : Danish
Default : No
Forced : No

Text #6
ID : 8
Format : UTF-8
Codec ID : S_TEXT/UTF8
Codec ID/Info : UTF-8 Plain Text
Duration : 49 min 5 s
Bit rate : 46 b/s
Count of elements : 588
Stream size : 16.6 KiB (0%)
Language : German
Default : No
Forced : No

Text #7
ID : 9
Format : UTF-8
Codec ID : S_TEXT/UTF8
Codec ID/Info : UTF-8 Plain Text
Duration : 49 min 5 s
Bit rate : 76 b/s
Count of elements : 604
Stream size : 27.4 KiB (0%)
Language : Greek
Default : No
Forced : No

Text #8
ID : 10
Format : UTF-8
Codec ID : S_TEXT/UTF8
Codec ID/Info : UTF-8 Plain Text
Duration : 49 min 5 s
Bit rate : 45 b/s
Count of elements : 601
Stream size : 16.3 KiB (0%)
Language : English
Default : No
Forced : No

Text #9
ID : 11
Format : UTF-8
Codec ID : S_TEXT/UTF8
Codec ID/Info : UTF-8 Plain Text
Duration : 49 min 44 s
Bit rate : 61 b/s
Count of elements : 873
Stream size : 22.4 KiB (0%)
Title : SDH
Language : English
Default : No
Forced : No

Text #10
ID : 12
Format : UTF-8
Codec ID : S_TEXT/UTF8
Codec ID/Info : UTF-8 Plain Text
Duration : 49 min 5 s
Bit rate : 46 b/s
Count of elements : 602
Stream size : 16.6 KiB (0%)
Title : Latin American
Language : Spanish
Default : No
Forced : No

Text #11
ID : 13
Format : UTF-8
Codec ID : S_TEXT/UTF8
Codec ID/Info : UTF-8 Plain Text
Duration : 49 min 5 s
Bit rate : 46 b/s
Count of elements : 603
Stream size : 16.9 KiB (0%)
Title : European
Language : Spanish
Default : No
Forced : No

Text #12
ID : 14
Format : UTF-8
Codec ID : S_TEXT/UTF8
Codec ID/Info : UTF-8 Plain Text
Duration : 49 min 5 s
Bit rate : 45 b/s
Count of elements : 554
Stream size : 16.4 KiB (0%)
Language : Finnish
Default : No
Forced : No

Text #13
ID : 15
Format : UTF-8
Codec ID : S_TEXT/UTF8
Codec ID/Info : UTF-8 Plain Text
Duration : 49 min 5 s
Bit rate : 47 b/s
Count of elements : 599
Stream size : 17.1 KiB (0%)
Language : French
Default : No
Forced : No

Text #14
ID : 16
Format : UTF-8
Codec ID : S_TEXT/UTF8
Codec ID/Info : UTF-8 Plain Text
Duration : 49 min 5 s
Bit rate : 73 b/s
Count of elements : 632
Stream size : 26.5 KiB (0%)
Language : Hebrew
Default : No
Forced : No

Text #15
ID : 17
Format : UTF-8
Codec ID : S_TEXT/UTF8
Codec ID/Info : UTF-8 Plain Text
Duration : 52 min 52 s
Bit rate : 39 b/s
Count of elements : 605
Stream size : 15.2 KiB (0%)
Language : Croatian
Default : No
Forced : No

Text #16
ID : 18
Format : UTF-8
Codec ID : S_TEXT/UTF8
Codec ID/Info : UTF-8 Plain Text
Duration : 49 min 5 s
Bit rate : 44 b/s
Count of elements : 594
Stream size : 16.2 KiB (0%)
Language : Hungarian
Default : No
Forced : No

Text #17
ID : 19
Format : UTF-8
Codec ID : S_TEXT/UTF8
Codec ID/Info : UTF-8 Plain Text
Duration : 49 min 5 s
Bit rate : 42 b/s
Count of elements : 604
Stream size : 15.4 KiB (0%)
Language : Indonesian
Default : No
Forced : No

Text #18
ID : 20
Format : UTF-8
Codec ID : S_TEXT/UTF8
Codec ID/Info : UTF-8 Plain Text
Duration : 52 min 49 s
Bit rate : 42 b/s
Count of elements : 599
Stream size : 16.6 KiB (0%)
Language : Italian
Default : No
Forced : No

Text #19
ID : 21
Format : UTF-8
Codec ID : S_TEXT/UTF8
Codec ID/Info : UTF-8 Plain Text
Duration : 50 min 55 s
Bit rate : 56 b/s
Count of elements : 609
Stream size : 21.1 KiB (0%)
Language : Korean
Default : No
Forced : No

Text #20
ID : 22
Format : UTF-8
Codec ID : S_TEXT/UTF8
Codec ID/Info : UTF-8 Plain Text
Duration : 52 min 53 s
Bit rate : 41 b/s
Count of elements : 603
Stream size : 16.1 KiB (0%)
Language : Malay
Default : No
Forced : No

Text #21
ID : 23
Format : UTF-8
Codec ID : S_TEXT/UTF8
Codec ID/Info : UTF-8 Plain Text
Duration : 49 min 5 s
Bit rate : 45 b/s
Count of elements : 602
Stream size : 16.2 KiB (0%)
Language : Norwegian Bokmal
Default : No
Forced : No

Text #22
ID : 24
Format : UTF-8
Codec ID : S_TEXT/UTF8
Codec ID/Info : UTF-8 Plain Text
Duration : 49 min 5 s
Bit rate : 46 b/s
Count of elements : 586
Stream size : 16.6 KiB (0%)
Language : Dutch
Default : No
Forced : No

Text #23
ID : 25
Format : UTF-8
Codec ID : S_TEXT/UTF8
Codec ID/Info : UTF-8 Plain Text
Duration : 49 min 5 s
Bit rate : 37 b/s
Count of elements : 600
Stream size : 13.5 KiB (0%)
Language : Polish
Default : No
Forced : No

Text #24
ID : 26
Format : UTF-8
Codec ID : S_TEXT/UTF8
Codec ID/Info : UTF-8 Plain Text
Duration : 49 min 5 s
Bit rate : 44 b/s
Count of elements : 594
Stream size : 16.0 KiB (0%)
Title : Brazilian
Language : Portuguese
Default : No
Forced : No

Text #25
ID : 27
Format : UTF-8
Codec ID : S_TEXT/UTF8
Codec ID/Info : UTF-8 Plain Text
Duration : 49 min 5 s
Bit rate : 47 b/s
Count of elements : 602
Stream size : 17.1 KiB (0%)
Title : European
Language : Portuguese
Default : No
Forced : No

Text #26
ID : 28
Format : UTF-8
Codec ID : S_TEXT/UTF8
Codec ID/Info : UTF-8 Plain Text
Duration : 49 min 5 s
Bit rate : 50 b/s
Count of elements : 603
Stream size : 18.0 KiB (0%)
Language : Romanian
Default : No
Forced : No

Text #27
ID : 29
Format : UTF-8
Codec ID : S_TEXT/UTF8
Codec ID/Info : UTF-8 Plain Text
Duration : 49 min 5 s
Bit rate : 69 b/s
Count of elements : 605
Stream size : 25.0 KiB (0%)
Language : Russian
Default : No
Forced : No

Text #28
ID : 30
Format : UTF-8
Codec ID : S_TEXT/UTF8
Codec ID/Info : UTF-8 Plain Text
Duration : 49 min 5 s
Bit rate : 44 b/s
Count of elements : 601
Stream size : 16.1 KiB (0%)
Language : Swedish
Default : No
Forced : No

Text #29
ID : 31
Format : UTF-8
Codec ID : S_TEXT/UTF8
Codec ID/Info : UTF-8 Plain Text
Duration : 49 min 5 s
Bit rate : 122 b/s
Count of elements : 668
Stream size : 44.1 KiB (0%)
Language : Thai
Default : No
Forced : No

Text #30
ID : 32
Format : UTF-8
Codec ID : S_TEXT/UTF8
Codec ID/Info : UTF-8 Plain Text
Duration : 49 min 5 s
Bit rate : 48 b/s
Count of elements : 603
Stream size : 17.4 KiB (0%)
Language : Turkish
Default : No
Forced : No

Text #31
ID : 33
Format : UTF-8
Codec ID : S_TEXT/UTF8
Codec ID/Info : UTF-8 Plain Text
Duration : 52 min 53 s
Bit rate : 59 b/s
Count of elements : 605
Stream size : 23.2 KiB (0%)
Language : Ukrainian
Default : No
Forced : No

Text #32
ID : 34
Format : UTF-8
Codec ID : S_TEXT/UTF8
Codec ID/Info : UTF-8 Plain Text
Duration : 49 min 5 s
Bit rate : 65 b/s
Count of elements : 603
Stream size : 23.5 KiB (0%)
Language : Vietnamese
Default : No
Forced : No

Text #33
ID : 35
Format : UTF-8
Codec ID : S_TEXT/UTF8
Codec ID/Info : UTF-8 Plain Text
Duration : 49 min 5 s
Bit rate : 47 b/s
Count of elements : 625
Stream size : 16.9 KiB (0%)
Title : 中文(简体)
Language : 中文
Default : No
Forced : No

Text #34
ID : 36
Format : UTF-8
Codec ID : S_TEXT/UTF8
Codec ID/Info : UTF-8 Plain Text
Duration : 49 min 5 s
Bit rate : 45 b/s
Count of elements : 585
Stream size : 16.5 KiB (0%)
Title : Traditional
Language : 中文(繁体)
Default : No
Forced : No

Menu
00:00:00.000 : enart 01
00:04:43.500 : en:Intro
00:05:31.250 : enart 02
00:49:48.450 : en:Credits


下载地址:

游客,如果您要查看本帖隐藏内容请回复





上一篇:全裸导演/The.Naked.Director (2021)/第二季全8集/4K高清版本下载
下一篇:幻灭 / Disenchantment (2018) / 第一季10集全 / 4K高清版本下载
回复

使用道具 举报

3

主题

1385

帖子

4173

积分

4K家园VIP

Rank: 9Rank: 9Rank: 9

积分
4173
发表于 2022-5-18 11:24:37 | 显示全部楼层
鄙视楼下的顶帖没我快,哈哈
回复 支持 反对

使用道具 举报

0

主题

14

帖子

27

积分

新手上路

Rank: 1

积分
27
发表于 2022-5-18 12:10:28 | 显示全部楼层
好贴子
回复

使用道具 举报

50

主题

1551

帖子

4489

积分

4K家园VIP

Rank: 9Rank: 9Rank: 9

积分
4489
发表于 2022-5-18 18:40:19 | 显示全部楼层
鼎力支持!!
回复 支持 反对

使用道具 举报

51

主题

1542

帖子

4432

积分

4K家园VIP

Rank: 9Rank: 9Rank: 9

积分
4432
发表于 2022-5-18 20:30:10 | 显示全部楼层
嘘,低调。
回复 支持 反对

使用道具 举报

0

主题

8

帖子

93

积分

新手上路

Rank: 1

积分
93
发表于 2022-5-19 10:22:06 | 显示全部楼层
感谢楼主分享,出4K版了
回复 支持 反对

使用道具 举报

0

主题

2

帖子

18

积分

4K家园VIP

Rank: 9Rank: 9Rank: 9

积分
18
发表于 2022-5-19 20:33:17 | 显示全部楼层
谢谢发片,4k片源不错。可以很好欣赏
回复 支持 反对

使用道具 举报

0

主题

5

帖子

45

积分

新手上路

Rank: 1

积分
45
发表于 2022-5-20 00:27:07 | 显示全部楼层
终于等到了4K版!
回复 支持 反对

使用道具 举报

0

主题

8

帖子

91

积分

4K家园VIP

Rank: 9Rank: 9Rank: 9

积分
91
发表于 2022-5-20 22:37:43 来自手机 | 显示全部楼层
看看怎么样
回复 支持 反对

使用道具 举报

0

主题

1406

帖子

4080

积分

4K家园VIP

Rank: 9Rank: 9Rank: 9

积分
4080
发表于 2022-5-21 19:51:35 | 显示全部楼层
哈哈,我只看看不说话
回复 支持 反对

使用道具 举报

您需要登录后才可以回帖 登录 | 立即注册

本版积分规则

精彩图文
Archiver|手机版|TAG|Sitemap|新帖|专题|联系我们:邮箱: 4kjia.com@gmail.com   

4k家园   ©2019