[4K电影] 窈窕奶爸(简繁中字)/ Mrs. Doubtfire (1993) 4k高清版本下载

[复制链接]

2299

主题

2448

帖子

1万

积分

超级版主

Rank: 8Rank: 8

积分
17752
 楼主| 发表于 2022-5-18 20:58:52 | 显示全部楼层 |阅读模式
QQ图片20220518205338_副本.png

◎译  名 窈窕奶爸/道菲尔太太/肥妈先生
◎片  名 Mrs. Doubtfire
◎年  代 1993
◎国  家 美国
◎类  别 喜剧/剧情/家庭
◎语  言 英语
◎上映日期 1993-11-24
◎IMDb评分  7.0/10 from 264128 users
◎IMDb链接  https://www.imdb.com/title/tt0107614/
◎豆瓣评分 7.8/10 from 14945 users
◎豆瓣链接 https://movie.douban.com/subject/1295006/
◎片  长 125 分钟
◎导  演 克里斯·哥伦布 Chris Columbus
◎主  演 罗宾·威廉姆斯 Robin Williams
       莎莉·菲尔德 Sally Field
       皮尔斯·布鲁斯南 Pierce Brosnan
       马修·劳伦斯 Matthew Lawrence
       哈维·费斯特恩 Harvey Fierstein


◎简  介

  丹尼尔•希拉德(罗宾•威廉斯 饰)因与同事产生摩擦而辞掉了配音员的工作。家中可爱的孩子给了他十足的快乐,于是丹尼尔在儿子生日的时候,与孩子们疯狂的玩耍起来。当妻子米兰(莎莉•菲尔德 饰)达看到家中一片狼藉后十分生气。面对不争气的丈夫,米兰达决定与之离婚,因为没有工作,丹尼尔也失去了孩子的抚养权。
  丹尼尔对孩子们无比思念,突发奇想乔装成一名老太太——道特菲尔太太应聘成为妻子家中的佣人。不懂家务的丹尼尔闹出了不少的笑话,却无形中为米兰达减轻了负担,孩子们也开始依赖这名“老太太”,“道特菲尔太太”成为了他们家中的重要一员,丹尼尔也因此改变了不少。
  但面对米兰达的新男友的恋情,“道特菲尔太太”暗中捣乱。米兰达生日当天,丹尼尔需要以真实身份与“道特菲尔太太”的身份周旋与电视台主管与米兰达之间,使他狼狈不看。匆忙间会否被米兰达识破身份呢?

◎获奖情况

  第66届奥斯卡金像奖  (1994)
  最佳化妆 Greg Cannom / 维·尼尔 / 约兰达·塔辛

Video
ID : 1
Format : HEVC
Format/Info : High Efficiency Video Coding
Format profile : Main 10@L5@Main
Codec ID : V_MPEGH/ISO/HEVC
Duration : 2 h 5 min
Bit rate : 24.9 Mb/s
Width : 3 840 pixels
Height : 2 160 pixels
Display aspect ratio : 16:9
Frame rate mode : Constant
Frame rate : 23.976 (24000/1001) FPS
Color space : YUV
Chroma subsampling : 4:2:0 (Type 2)
Bit depth : 10 bits
Bits/(Pixel*Frame) : 0.125
Stream size : 21.8 GiB (87%)
Default : Yes
Forced : No
Color range : Limited
Color primaries : BT.709
Transfer characteristics : BT.709
Matrix coefficients : BT.709

Audio #1
ID : 2
Format : DTS XLL
Format/Info : Digital Theater Systems
Commercial name : DTS-HD Master Audio
Codec ID : A_DTS
Duration : 2 h 5 min
Bit rate mode : Variable
Bit rate : 3 419 kb/s
Channel(s) : 6 channels
Channel layout : C L R Ls Rs LFE
Sampling rate : 48.0 kHz
Frame rate : 93.750 FPS (512 SPF)
Bit depth : 24 bits
Compression mode : Lossless
Stream size : 2.99 GiB (12%)
Title : 5.1 Upmix
Language : English
Default : Yes
Forced : No

Audio #2
ID : 3
Format : AC-3
Format/Info : Audio Coding 3
Commercial name : Dolby Digital
Format settings : Dolby Surround
Codec ID : A_AC3
Duration : 2 h 5 min
Bit rate mode : Constant
Bit rate : 192 kb/s
Channel(s) : 2 channels
Channel layout : L R
Sampling rate : 48.0 kHz
Frame rate : 31.250 FPS (1536 SPF)
Compression mode : Lossy
Stream size : 172 MiB (1%)
Title : Original Dolby Surround
Language : English
Service kind : Complete Main
Default : No
Forced : No

Audio #3
ID : 4
Format : AC-3
Format/Info : Audio Coding 3
Commercial name : Dolby Digital
Codec ID : A_AC3
Duration : 2 h 5 min
Bit rate mode : Constant
Bit rate : 96.0 kb/s
Channel(s) : 2 channels
Channel layout : L R
Sampling rate : 48.0 kHz
Frame rate : 31.250 FPS (1536 SPF)
Compression mode : Lossy
Stream size : 85.9 MiB (0%)
Title : Commentary by director Chris Columbus
Language : English
Service kind : Complete Main
Default : No
Forced : No

Text #1
ID : 5
Format : UTF-8
Codec ID : S_TEXT/UTF8
Codec ID/Info : UTF-8 Plain Text
Duration : 2 h 0 min
Bit rate : 82 b/s
Count of elements : 2015
Stream size : 72.8 KiB (0%)
Language : English
Default : No
Forced : No

Text #2
ID : 6
Format : UTF-8
Codec ID : S_TEXT/UTF8
Codec ID/Info : UTF-8 Plain Text
Duration : 2 h 0 min
Bit rate : 87 b/s
Count of elements : 2084
Stream size : 77.0 KiB (0%)
Title : SDH
Language : English
Default : No
Forced : No

Text #3
ID : 7
Format : UTF-8
Codec ID : S_TEXT/UTF8
Codec ID/Info : UTF-8 Plain Text
Duration : 2 h 3 min
Bit rate : 69 b/s
Count of elements : 1547
Stream size : 63.0 KiB (0%)
Language : Danish
Default : No
Forced : No

Text #4
ID : 8
Format : UTF-8
Codec ID : S_TEXT/UTF8
Codec ID/Info : UTF-8 Plain Text
Duration : 2 h 3 min
Bit rate : 72 b/s
Count of elements : 1750
Stream size : 66.2 KiB (0%)
Language : German
Default : No
Forced : No

Text #5
ID : 9
Format : UTF-8
Codec ID : S_TEXT/UTF8
Codec ID/Info : UTF-8 Plain Text
Duration : 1 h 59 min
Bit rate : 59 b/s
Count of elements : 1522
Stream size : 51.9 KiB (0%)
Title : Latin American Spanish
Language : Spanish
Default : No
Forced : No

Text #6
ID : 10
Format : UTF-8
Codec ID : S_TEXT/UTF8
Codec ID/Info : UTF-8 Plain Text
Duration : 2 h 4 min
Bit rate : 71 b/s
Count of elements : 1579
Stream size : 64.7 KiB (0%)
Title : Iberian Spanish
Language : Spanish
Default : No
Forced : No

Text #7
ID : 11
Format : UTF-8
Codec ID : S_TEXT/UTF8
Codec ID/Info : UTF-8 Plain Text
Duration : 2 h 3 min
Bit rate : 66 b/s
Count of elements : 1509
Stream size : 60.1 KiB (0%)
Language : Finnish
Default : No
Forced : No

Text #8
ID : 12
Format : UTF-8
Codec ID : S_TEXT/UTF8
Codec ID/Info : UTF-8 Plain Text
Duration : 2 h 3 min
Bit rate : 67 b/s
Count of elements : 1509
Stream size : 61.1 KiB (0%)
Language : French
Default : No
Forced : No

Text #9
ID : 13
Format : UTF-8
Codec ID : S_TEXT/UTF8
Codec ID/Info : UTF-8 Plain Text
Duration : 2 h 4 min
Bit rate : 74 b/s
Count of elements : 1602
Stream size : 67.5 KiB (0%)
Language : Icelandic
Default : No
Forced : No

Text #10
ID : 14
Format : UTF-8
Codec ID : S_TEXT/UTF8
Codec ID/Info : UTF-8 Plain Text
Duration : 1 h 59 min
Bit rate : 66 b/s
Count of elements : 1697
Stream size : 58.5 KiB (0%)
Language : Italian
Default : No
Forced : No

Text #11
ID : 15
Format : UTF-8
Codec ID : S_TEXT/UTF8
Codec ID/Info : UTF-8 Plain Text
Duration : 1 h 59 min
Bit rate : 52 b/s
Count of elements : 1562
Stream size : 46.0 KiB (0%)
Language : Japanese
Default : No
Forced : No

Text #12
ID : 16
Format : UTF-8
Codec ID : S_TEXT/UTF8
Codec ID/Info : UTF-8 Plain Text
Duration : 2 h 0 min
Bit rate : 51 b/s
Count of elements : 1514
Stream size : 45.1 KiB (0%)
Language : Korean
Default : No
Forced : No

Text #13
ID : 17
Format : UTF-8
Codec ID : S_TEXT/UTF8
Codec ID/Info : UTF-8 Plain Text
Duration : 2 h 3 min
Bit rate : 48 b/s
Count of elements : 1500
Stream size : 44.0 KiB (0%)
Language : Dutch
Default : No
Forced : No

Text #14
ID : 18
Format : UTF-8
Codec ID : S_TEXT/UTF8
Codec ID/Info : UTF-8 Plain Text
Duration : 1 h 59 min
Bit rate : 70 b/s
Count of elements : 1525
Stream size : 61.5 KiB (0%)
Language : Norwegian
Default : No
Forced : No

Text #15
ID : 19
Format : UTF-8
Codec ID : S_TEXT/UTF8
Codec ID/Info : UTF-8 Plain Text
Duration : 1 h 59 min
Bit rate : 67 b/s
Count of elements : 1882
Stream size : 59.0 KiB (0%)
Language : Polish
Default : No
Forced : No

Text #16
ID : 20
Format : UTF-8
Codec ID : S_TEXT/UTF8
Codec ID/Info : UTF-8 Plain Text
Duration : 1 h 59 min
Bit rate : 68 b/s
Count of elements : 1644
Stream size : 59.9 KiB (0%)
Title : Brazilian Portuguese
Language : Portuguese
Default : No
Forced : No

Text #17
ID : 21
Format : UTF-8
Codec ID : S_TEXT/UTF8
Codec ID/Info : UTF-8 Plain Text
Duration : 2 h 3 min
Bit rate : 71 b/s
Count of elements : 1577
Stream size : 65.1 KiB (0%)
Title : European Portuguese
Language : Portuguese
Default : No
Forced : No

Text #18
ID : 22
Format : UTF-8
Codec ID : S_TEXT/UTF8
Codec ID/Info : UTF-8 Plain Text
Duration : 2 h 4 min
Bit rate : 65 b/s
Count of elements : 1594
Stream size : 59.7 KiB (0%)
Language : Romanian
Default : No
Forced : No

Text #19
ID : 23
Format : UTF-8
Codec ID : S_TEXT/UTF8
Codec ID/Info : UTF-8 Plain Text
Duration : 1 h 59 min
Bit rate : 61 b/s
Count of elements : 1501
Stream size : 54.0 KiB (0%)
Language : Swedish
Default : No
Forced : No

Text #20
ID : 24
Format : UTF-8
Codec ID : S_TEXT/UTF8
Codec ID/Info : UTF-8 Plain Text
Duration : 2 h 3 min
Bit rate : 71 b/s
Count of elements : 1710
Stream size : 64.5 KiB (0%)
Language : Turkish
Default : No
Forced : No

Text #21
ID : 25
Format : UTF-8
Codec ID : S_TEXT/UTF8
Codec ID/Info : UTF-8 Plain Text
Duration : 1 h 59 min
Bit rate : 44 b/s
Count of elements : 1500
Stream size : 38.7 KiB (0%)
Title : 中文(香港)
Language : 中文
Default : No
Forced : No

Text #22
ID : 26
Format : UTF-8
Codec ID : S_TEXT/UTF8
Codec ID/Info : UTF-8 Plain Text
Duration : 1 h 59 min
Bit rate : 61 b/s
Count of elements : 1637
Stream size : 54.0 KiB (0%)
Title : 中文(简体)
Language : 中文
Default : No
Forced : No

Text #23
ID : 27
Format : UTF-8
Codec ID : S_TEXT/UTF8
Codec ID/Info : UTF-8 Plain Text
Duration : 2 h 4 min
Bit rate : 62 b/s
Count of elements : 1960
Stream size : 57.5 KiB (0%)
Title : 中文(繁体)
Language : 中文
Default : No
Forced : No


Menu
00:00:00.000 : en:Main Titles
00:07:28.906 : en:The Birthday Party
00:09:44.708 : en:The Party\'s Over
00:12:13.857 : en:A Temporary Thing
00:14:16.680 : en:Custody Proceedings
00:18:30.767 : en:The Court Liaison
00:21:16.766 : en:Reacquainted with Stu
00:23:50.119 : enad\'s New Place
00:29:23.452 : en:Classified Responses
00:32:49.959 : en:Transformation
00:36:22.871 : en:Meet Mrs. Doubtfire
00:50:43.031 : en:Running a Tight Ship
00:59:25.586 : en:Getting into the Role
01:03:04.772 : en:A Gentleman Caller...
01:09:40.033 : en:A Real Dinosaur
01:17:11.618 : en:Beyond Obsession
01:22:11.918 : en:A Surprise Break
01:24:34.393 : en:\"Too Good To Be True\"
01:29:26.051 : eninner at Bridges
01:39:52.644 : en:\"Show\'s Over.\"
01:49:39.397 : en:Nobody Like Her
01:56:52.329 : en:The New Babysitter
02:00:58.942 : en:End Title

资源速度为零或资源敏感被和谐时,推荐使用qBittorrent等下载软件,有条件的推荐115更好的下载软件!

下载地址:


游客,如果您要查看本帖隐藏内容请回复


以下为以往链接(无中字版本)
游客,如果您要查看本帖隐藏内容请回复



.

上一篇:刺猬索尼克2 (内封中字)/Sonic the Hedgehog 2 (2022)4k高清版本下载
下一篇:前程似锦的女孩 / Promising.Young.Woman (2020) 4k高清版本下载
回复

使用道具 举报

3

主题

1302

帖子

3916

积分

4K家园VIP

Rank: 9Rank: 9Rank: 9

积分
3916
发表于 2022-5-18 20:58:55 | 显示全部楼层
看起来不错
回复 支持 反对

使用道具 举报

1

主题

1167

帖子

3521

积分

4K家园VIP

Rank: 9Rank: 9Rank: 9

积分
3521
发表于 2022-5-18 21:35:25 | 显示全部楼层
我只是看看啊,不说话
回复 支持 反对

使用道具 举报

3

主题

1398

帖子

4218

积分

4K家园VIP

Rank: 9Rank: 9Rank: 9

积分
4218
发表于 2022-5-19 00:13:56 | 显示全部楼层
大人,此事必有蹊跷!
回复 支持 反对

使用道具 举报

3

主题

1344

帖子

4058

积分

4K家园VIP

Rank: 9Rank: 9Rank: 9

积分
4058
发表于 2022-5-19 01:11:19 | 显示全部楼层
支持下楼主,顶一个
回复 支持 反对

使用道具 举报

0

主题

1378

帖子

3984

积分

4K家园VIP

Rank: 9Rank: 9Rank: 9

积分
3984
发表于 2022-5-19 07:22:22 | 显示全部楼层
求沙发
回复 支持 反对

使用道具 举报

0

主题

125

帖子

6101

积分

高级会员

Rank: 3Rank: 3

积分
6101
发表于 2022-5-19 08:20:34 | 显示全部楼层
感谢楼主分享
回复 支持 反对

使用道具 举报

0

主题

1

帖子

6

积分

新手上路

Rank: 1

积分
6
发表于 2022-5-19 15:39:33 | 显示全部楼层

my mom nude

my mom nude
回复

使用道具 举报

0

主题

1

帖子

6

积分

新手上路

Rank: 1

积分
6
发表于 2022-5-19 15:51:06 来自手机 | 显示全部楼层
DZZZZ 发表于 2022-5-18 21:35
我只是看看啊,不说话

哈哈
回复 支持 反对

使用道具 举报

您需要登录后才可以回帖 登录 | 立即注册

本版积分规则

精彩图文
Archiver|手机版|TAG|Sitemap|新帖|专题|联系我们:邮箱: 4kjia.com@gmail.com   

4k家园   ©2019