[国家地理] [4K国家地理] 冬季盐湖城 (2021) [2160P/MKV/419MB]

[复制链接]

2800

主题

3162

帖子

2万

积分

超级版主

Rank: 8Rank: 8

积分
26550
 楼主| 发表于 2022-5-22 14:39:40 | 显示全部楼层 |阅读模式

冬季盐湖城(419MB) (2021) WEBRip 2160p.mkv_20220519_120322.059.jpg 冬季盐湖城(419MB) (2021) WEBRip 2160p.mkv_20220519_120329.516.jpg 冬季盐湖城(419MB) (2021) WEBRip 2160p.mkv_20220519_120345.957.jpg 冬季盐湖城(419MB) (2021) WEBRip 2160p.mkv_20220519_120355.884.jpg 冬季盐湖城(419MB) (2021) WEBRip 2160p.mkv_20220519_120403.221.jpg 冬季盐湖城(419MB) (2021) WEBRip 2160p.mkv_20220519_120422.444.jpg

电影信息
标题:冬季盐湖城
上映时间: 2021
时间: 00 : 03 : 42
类型: 物种

电影简介:

       盐湖城,山川秀美,一年四季都是一座美丽的城市,但要看到它的冬天,真的有一些特别的东西。令人难以置信的美景、清新的空气、耸立在地平线上的白雪皑皑的山峰真是太神奇了。
General
Complete name                  : E:\4K@MV\国家地理\冬季盐湖城(419MB) (2021) WEBRip 2160p.mkv
Format                         : Matroska
Format version                 : Version 4
File size                      : 419 MiB
Duration                       : 3 min 42 s
Overall bit rate               : 15.8 Mb/s
Encoded date                   : UTC 2021-09-24 17:20:18
Writing application            : mkvmerge v61.0.0 ('So') 64-bit
Writing library                : libebml v1.4.2 + libmatroska v1.6.4 / Lavf58.29.100

Video
ID                             : 1
Format                         : VP9
Codec ID                       : V_VP9
Duration                       : 3 min 42 s
Bit rate                       : 15.6 Mb/s
Width                          : 3 840 pixels
Height                         : 2 160 pixels
Display aspect ratio           : 16:9
Frame rate mode                : Constant
Frame rate                     : 23.976 (24000/1001) FPS
Color space                    : YUV
Bits/(Pixel*Frame)             : 0.079
Stream size                    : 416 MiB (99%)
Default                        : Yes
Forced                         : No
Color range                    : Limited
Color primaries                : BT.709
Transfer characteristics       : BT.709
Matrix coefficients            : BT.709

Audio
ID                             : 2
Format                         : Opus
Codec ID                       : A_OPUS
Duration                       : 3 min 42 s
Bit rate                       : 132 kb/s
Channel(s)                     : 2 channels
Channel layout                 : L R
Sampling rate                  : 48.0 kHz
Frame rate                     : 50.003 FPS (960 SPF)
Bit depth                      : 32 bits
Compression mode               : Lossy
Stream size                    : 3.50 MiB (1%)
Default                        : Yes
Forced                         : No
下载地址:


****此区域为收费内容****    需支付 15 金币后可查看立即购买




.

上一篇:[4K国家地理] 人类文明的城市之魂 (2018) [2160P/MKV/687MB]
下一篇:[4K国家地理] 多洛米蒂山脉的冬天 (2021) [2160P/MKV/427MB]
回复

使用道具 举报

46

主题

1503

帖子

4353

积分

4K家园VIP

Rank: 9Rank: 9Rank: 9

积分
4353
发表于 2022-5-22 14:39:43 | 显示全部楼层
纯粹路过,没任何兴趣,仅仅是看在老用户份上回复一下
回复 支持 反对

使用道具 举报

1

主题

1268

帖子

3822

积分

4K家园VIP

Rank: 9Rank: 9Rank: 9

积分
3822
发表于 2022-5-22 17:55:33 | 显示全部楼层
站位支持
回复 支持 反对

使用道具 举报

2

主题

1351

帖子

3873

积分

4K家园VIP

Rank: 9Rank: 9Rank: 9

积分
3873
发表于 2022-5-23 12:52:51 | 显示全部楼层
珍爱生命,果断回帖。
回复 支持 反对

使用道具 举报

1

主题

1385

帖子

3961

积分

4K家园VIP

Rank: 9Rank: 9Rank: 9

积分
3961
发表于 2022-5-23 14:17:46 | 显示全部楼层
回个帖子,下班咯~
回复 支持 反对

使用道具 举报

5

主题

1645

帖子

4555

积分

中级会员

Rank: 4

积分
4555
发表于 2022-5-24 02:39:47 | 显示全部楼层
是爷们的娘们的都帮顶!大力支持
回复 支持 反对

使用道具 举报

您需要登录后才可以回帖 登录 | 立即注册

本版积分规则

精彩图文
Archiver|手机版|TAG|Sitemap|新帖|专题|联系我们:邮箱: 4kjia.com@gmail.com   

4k家园   ©2019