[国家地理] [4K国家地理] 多洛米蒂山脉的冬天 (2021) [2160P/MKV/427MB]

[复制链接]

2846

主题

3211

帖子

2万

积分

超级版主

Rank: 8Rank: 8

积分
27159
 楼主| 发表于 2022-6-1 10:16:55 | 显示全部楼层 |阅读模式

冬季(427MB) (2021) WEBRip 2160p.mkv_20220519_120939.023.jpg 冬季(427MB) (2021) WEBRip 2160p.mkv_20220519_120954.492.jpg 冬季(427MB) (2021) WEBRip 2160p.mkv_20220519_120959.309.jpg 冬季(427MB) (2021) WEBRip 2160p.mkv_20220519_121004.292.jpg 冬季(427MB) (2021) WEBRip 2160p.mkv_20220519_121014.700.jpg 冬季(427MB) (2021) WEBRip 2160p.mkv_20220519_121028.548.jpg

电影信息
片名:冬季
上映时间: 2021
国家:意大利
时间: 00:04:00
类型: 物种
导演:丹尼斯·巴尔巴斯

关于电影:

      多洛米蒂山脉的冬天。

General
Complete name                  : E:\4K@MV\国家地理\多洛米蒂山脉的冬天(427MB) (2021) WEBRip 2160p.mkv
Format                         : Matroska
Format version                 : Version 4
File size                      : 428 MiB
Duration                       : 4 min 0 s
Overall bit rate               : 14.9 Mb/s
Encoded date                   : UTC 2021-09-24 16:17:05
Writing application            : mkvmerge v61.0.0 ('So') 64-bit
Writing library                : libebml v1.4.2 + libmatroska v1.6.4 / Lavf58.29.100

Video
ID                             : 1
Format                         : VP9
Codec ID                       : V_VP9
Duration                       : 4 min 0 s
Bit rate                       : 14.8 Mb/s
Width                          : 3 840 pixels
Height                         : 2 160 pixels
Display aspect ratio           : 16:9
Frame rate mode                : Constant
Frame rate                     : 29.970 FPS
Color space                    : YUV
Bits/(Pixel*Frame)             : 0.059
Stream size                    : 424 MiB (99%)
Default                        : Yes
Forced                         : No
Color range                    : Limited
Color primaries                : BT.709
Transfer characteristics       : BT.709
Matrix coefficients            : BT.709

Audio
ID                             : 2
Format                         : Opus
Codec ID                       : A_OPUS
Duration                       : 4 min 0 s
Bit rate                       : 132 kb/s
Channel(s)                     : 2 channels
Channel layout                 : L R
Sampling rate                  : 48.0 kHz
Frame rate                     : 50.003 FPS (960 SPF)
Bit depth                      : 32 bits
Compression mode               : Lossy
Stream size                    : 3.79 MiB (1%)
Default                        : Yes
Forced                         : No
下载地址

****此区域为收费内容****    需支付 15 金币后可查看立即购买






上一篇:[4K国家地理] 冬季盐湖城 (2021) [2160P/MKV/419MB]
下一篇:[4K国家地理] 东京风情 (2021) [2160P/MKV/317MB]
回复

使用道具 举报

17

主题

1251

帖子

3749

积分

4K家园VIP

Rank: 9Rank: 9Rank: 9

积分
3749
发表于 2022-6-1 10:17:03 | 显示全部楼层
为了三千积分!
回复 支持 反对

使用道具 举报

0

主题

13

帖子

102

积分

新手上路

Rank: 1

积分
102
发表于 2022-6-1 12:42:48 | 显示全部楼层
多美的自然风光,可惜暂时无法领略
回复 支持 反对

使用道具 举报

1

主题

1649

帖子

4569

积分

4K家园VIP

Rank: 9Rank: 9Rank: 9

积分
4569
发表于 2022-6-1 18:12:14 来自手机 | 显示全部楼层
very good
回复 支持 反对

使用道具 举报

5

主题

1381

帖子

4169

积分

4K家园VIP

Rank: 9Rank: 9Rank: 9

积分
4169
发表于 2022-6-7 19:03:36 来自手机 | 显示全部楼层
是爷们的娘们的都帮顶!大力支持
回复 支持 反对

使用道具 举报

43

主题

1515

帖子

4353

积分

4K家园VIP

Rank: 9Rank: 9Rank: 9

积分
4353
发表于 2022-6-10 16:50:14 来自手机 | 显示全部楼层
4K电影下个试试
回复 支持 反对

使用道具 举报

62

主题

1615

帖子

4681

积分

4K家园VIP

Rank: 9Rank: 9Rank: 9

积分
4681
发表于 2022-6-13 05:09:52 | 显示全部楼层
4K应该不错,我也下个看看
回复 支持 反对

使用道具 举报

您需要登录后才可以回帖 登录 | 立即注册

本版积分规则

精彩图文
Archiver|手机版|TAG|Sitemap|新帖|专题|联系我们:邮箱: 4kjia.com@gmail.com   

4k家园   ©2019