[国家地理] [4K国家地理] 东京风情 (2021) [2160P/MKV/317MB]

[复制链接]

2800

主题

3162

帖子

2万

积分

超级版主

Rank: 8Rank: 8

积分
26550
 楼主| 发表于 2022-5-28 14:31:06 | 显示全部楼层 |阅读模式

东京(317MB) (2021) WEBRip 2160p.mkv_20220519_121635.230.jpg 东京(317MB) (2021) WEBRip 2160p.mkv_20220519_121642.340.jpg 东京(317MB) (2021) WEBRip 2160p.mkv_20220519_121657.156.jpg 东京(317MB) (2021) WEBRip 2160p.mkv_20220519_121706.220.jpg 东京(317MB) (2021) WEBRip 2160p.mkv_20220519_121726.995.jpg 东京(317MB) (2021) WEBRip 2160p.mkv_20220519_121803.012.jpg

影片信息
片名:东京风情
上映年份: 2021
国家:日本
时长: 00 : 03 : 56
类型: 物种
导演: Ryan Audencial

影片简介:

       东京是日本的首都,一座繁华的城市,霓虹灯照明的现代摩天大楼与传统寺庙相结合。

General
Complete name                  : E:\4K@MV\国家地理\东京风情(317MB) (2021) WEBRip 2160p.mkv
Format                         : Matroska
Format version                 : Version 4
File size                      : 318 MiB
Duration                       : 3 min 56 s
Overall bit rate               : 11.3 Mb/s
Encoded date                   : UTC 2021-09-16 19:21:36
Writing application            : mkvmerge v61.0.0 ('So') 64-bit
Writing library                : libebml v1.4.2 + libmatroska v1.6.4 / Lavf58.29.100

Video
ID                             : 1
Format                         : VP9
Codec ID                       : V_VP9
Duration                       : 3 min 56 s
Bit rate                       : 11.2 Mb/s
Width                          : 3 840 pixels
Height                         : 1 920 pixels
Display aspect ratio           : 2.000
Frame rate mode                : Constant
Frame rate                     : 23.976 (24000/1001) FPS
Color space                    : YUV
Bits/(Pixel*Frame)             : 0.063
Stream size                    : 314 MiB (99%)
Default                        : Yes
Forced                         : No
Color range                    : Limited
Color primaries                : BT.709
Transfer characteristics       : BT.709
Matrix coefficients            : BT.709

Audio
ID                             : 2
Format                         : Opus
Codec ID                       : A_OPUS
Duration                       : 3 min 56 s
Bit rate                       : 128 kb/s
Channel(s)                     : 2 channels
Channel layout                 : L R
Sampling rate                  : 48.0 kHz
Frame rate                     : 50.003 FPS (960 SPF)
Bit depth                      : 32 bits
Compression mode               : Lossy
Stream size                    : 3.62 MiB (1%)
Default                        : Yes
Forced                         : No
下载地址:

****此区域为收费内容****    需支付 15 金币后可查看立即购买





上一篇:[4K国家地理] 多洛米蒂山脉的冬天 (2021) [2160P/MKV/427MB]
下一篇:[4K国家地理] 沙漠中的迪拜 (2021) [2160P/MKV/268MB]
回复

使用道具 举报

67

主题

1548

帖子

4462

积分

4K家园VIP

Rank: 9Rank: 9Rank: 9

积分
4462
发表于 2022-5-28 14:31:12 | 显示全部楼层
边撸边过
回复 支持 反对

使用道具 举报

42

主题

1523

帖子

4381

积分

4K家园VIP

Rank: 9Rank: 9Rank: 9

积分
4381
发表于 2022-5-28 23:35:30 | 显示全部楼层
支持一下楼主发表的内容
回复 支持 反对

使用道具 举报

37

主题

1409

帖子

4043

积分

4K家园VIP

Rank: 9Rank: 9Rank: 9

积分
4043
发表于 2022-5-28 23:52:22 | 显示全部楼层
楼主呀,,,您太有才了。。。
回复 支持 反对

使用道具 举报

2

主题

1650

帖子

4492

积分

4K家园VIP

Rank: 9Rank: 9Rank: 9

积分
4492
发表于 2022-5-30 08:50:22 来自手机 | 显示全部楼层
支持一下楼主发表的内容
回复 支持 反对

使用道具 举报

34

主题

1548

帖子

4354

积分

4K家园VIP

Rank: 9Rank: 9Rank: 9

积分
4354
发表于 2022-5-31 00:08:47 | 显示全部楼层
我也顶起出售广告位
回复 支持 反对

使用道具 举报

0

主题

1

帖子

6

积分

新手上路

Rank: 1

积分
6
发表于 2022-6-1 15:46:45 | 显示全部楼层
真的很好看
回复 支持 反对

使用道具 举报

您需要登录后才可以回帖 登录 | 立即注册

本版积分规则

精彩图文
Archiver|手机版|TAG|Sitemap|新帖|专题|联系我们:邮箱: 4kjia.com@gmail.com   

4k家园   ©2019