[国家地理] [4K国家地理] 柏林灯光节 (2021) [2160P/MKV/542MB]

[复制链接]

2846

主题

3211

帖子

2万

积分

超级版主

Rank: 8Rank: 8

积分
27159
 楼主| 发表于 2022-6-14 13:59:05 | 显示全部楼层 |阅读模式
灯节 (2021) WEBRip 2160p.mkv_20220519_123206.396.jpg 灯节 (2021) WEBRip 2160p.mkv_20220519_123217.739.jpg 灯节 (2021) WEBRip 2160p.mkv_20220519_123226.003.jpg 灯节 (2021) WEBRip 2160p.mkv_20220519_123232.075.jpg 灯节 (2021) WEBRip 2160p.mkv_20220519_123238.076.jpg 灯节 (2021) WEBRip 2160p.mkv_20220519_123242.979.jpg 灯节 (2021) WEBRip 2160p.mkv_20220519_123252.244.jpg 灯节 (2021) WEBRip 2160p.mkv_20220519_123257.691.jpg

影片信息
片名:柏林灯光节
上映年份: 2021
国家:德国
持续时间: 00 : 03 : 18
类型: 物种
导演: Rico Oder

关于电影:

       每年 9 月至 10 月在柏林举行的年度国际盛会。整个城市的地标和建筑物都使用照明、灯光投影和 3D 地图进行改造。
General
Complete name                  : E:\4K@MV\国家地理\灯节 (2021) WEBRip 2160p.mkv
Format                         : Matroska
Format version                 : Version 4
File size                      : 543 MiB
Duration                       : 3 min 18 s
Overall bit rate               : 23.0 Mb/s
Encoded date                   : UTC 2021-11-02 18:57:34
Writing application            : mkvmerge v62.0.0 ('Apollo') 64-bit
Writing library                : libebml v1.4.2 + libmatroska v1.6.4 / IDMmkvlib0.1
Language                       : und

Video
ID                             : 1
Format                         : VP9
Codec ID                       : V_VP9
Duration                       : 3 min 18 s
Bit rate                       : 22.8 Mb/s
Width                          : 3 840 pixels
Height                         : 2 160 pixels
Display aspect ratio           : 16:9
Frame rate mode                : Variable
Frame rate                     : 60.000 FPS
Bits/(Pixel*Frame)             : 0.046
Stream size                    : 539 MiB (99%)
Default                        : Yes
Forced                         : No

Audio
ID                             : 2
Format                         : Opus
Codec ID                       : A_OPUS
Duration                       : 3 min 18 s
Bit rate                       : 130 kb/s
Channel(s)                     : 2 channels
Channel layout                 : L R
Sampling rate                  : 48.0 kHz
Frame rate                     : 50.000 FPS (960 SPF)
Bit depth                      : 16 bits
Compression mode               : Lossy
Stream size                    : 3.06 MiB (0%)
Default                        : Yes
Forced                         : No

下载地址:


****此区域为收费内容****    需支付 15 金币后可查看立即购买





上一篇:[4K国家地理] 沙漠中的迪拜 (2021) [2160P/MKV/268MB]
下一篇:[4K国家地理] 意大利的传统习俗 (2020) [2160P/MKV/809MB]
回复

使用道具 举报

41

主题

1544

帖子

4408

积分

4K家园VIP

Rank: 9Rank: 9Rank: 9

积分
4408
发表于 2022-6-14 13:59:12 来自手机 | 显示全部楼层
为了三千积分!
回复 支持 反对

使用道具 举报

2

主题

1188

帖子

3584

积分

4K家园VIP

Rank: 9Rank: 9Rank: 9

积分
3584
发表于 2022-6-15 00:06:24 | 显示全部楼层
鄙视楼下的顶帖没我快,哈哈
回复 支持 反对

使用道具 举报

2

主题

1411

帖子

4085

积分

4K家园VIP

Rank: 9Rank: 9Rank: 9

积分
4085
发表于 2022-6-17 14:24:12 | 显示全部楼层
4K版的应该更清晰吧
回复 支持 反对

使用道具 举报

2

主题

1579

帖子

4309

积分

4K家园VIP

Rank: 9Rank: 9Rank: 9

积分
4309
发表于 2022-6-17 22:55:49 | 显示全部楼层
额.....这个可以有
回复 支持 反对

使用道具 举报

3

主题

1407

帖子

4063

积分

4K家园VIP

Rank: 9Rank: 9Rank: 9

积分
4063
发表于 2022-6-18 23:19:02 | 显示全部楼层
4K家园资源不错,前排支持
回复 支持 反对

使用道具 举报

您需要登录后才可以回帖 登录 | 立即注册

本版积分规则

精彩图文
Archiver|手机版|TAG|Sitemap|新帖|专题|联系我们:邮箱: 4kjia.com@gmail.com   

4k家园   ©2019