[4K电影] 记忆 / Memory (2022) 4K高清版本下载

[复制链接]

1868

主题

2007

帖子

1万

积分

超级版主

Rank: 8Rank: 8

积分
15027
 楼主| 发表于 2022-5-19 13:08:07 | 显示全部楼层 |阅读模式
11222.png

◎译  名 记忆/ 记忆杀神(台) / 失忆刺客 / 记忆营救
◎片  名 Memory
◎年  代 2022
◎产  地 美国
◎类  别 动作 / 惊悚
◎语  言 英语
◎上映日期 2022-04-29(美国)
◎IMDb评分  5.7/10 from 1459 users
◎IMDb链接  https://www.imdb.com/title/tt11827628/
◎豆瓣评分 0/10 from 0 users
◎豆瓣链接 https://movie.douban.com/subject/34970422/
◎片  长 130分钟
◎导  演 马丁·坎贝尔 Martin Campbell
◎编  剧 达里奥·斯卡达潘 Dario Scardapane / 杰弗·格瑞特 Jef Geeraerts / 卡尔·乔斯 Carl Joos / 艾瑞克·范·洛依 Erik Van Looy
◎演  员 连姆·尼森 Liam Neeson
                  莫妮卡·贝鲁奇 Monica Bellucci
                  盖·皮尔斯 Guy Pearce
                  雷·史蒂文森 Ray Stevenson
                  塔伊·阿特沃尔 Taj Atwal
                  斯特拉·斯托克尔 Stella Stocker
                  路易·曼迪勒 Louis Mandylor
                  雷·费隆 Ray Fearon
                  安东尼奥·杰拉米洛 Antonio Jaramillo
                  李·布罗德曼 Lee Boardman
                  娜塔莉·安德森 Natalie Anderson
                  蕾贝卡·卡尔德 Rebecca Calder
                  哈罗德·托雷斯 Harold Torres
                  西加尔·迪亚曼特 Sigal Diamant
                  凯特·尼科尔斯 Kate Nichols
                  阿塔纳斯·斯雷布雷夫 Atanas Srebrev
                  斯科特·威廉斯 Scot Williams
                  道格·拉奥 Doug Rao


◎简  介


      该片改编自2003年丹麦影片《冷面赤心》。
  讲述亚历克斯·刘易斯(连姆·尼森 饰)是一位以谨慎精准著称的刺客专家。亚历克斯在拒绝完成一个危险的犯罪组织的任务后,他成为了被刺杀的目标,他必须去追杀那些想要他死的人。美国联邦调查局资深探员文森特·塞拉(盖·皮尔斯 饰)、琳达·阿米斯蒂德(塔伊·阿特沃尔 饰)和墨西哥情报联络员雨果·马克斯(哈罗德·托雷斯 饰)被请来调查那些被刺杀的尸体的踪迹,他们由此更接近亚历克斯,但也引来当地科技大亨达瓦娜·西尔曼(莫妮卡·贝鲁奇 饰)的愤怒。在犯罪集团和美国联邦调查局的紧追不舍下,亚历克斯有能力逃开,但他正与严重失忆作斗争,这影响了他的一举一动。随着细节的模糊和敌人的逼近,亚历克斯开始质疑自己的一举一动,以及他最终能信任谁。

Video
ID : 1
Format : HEVC
Format/Info : High Efficiency Video Coding
Format profile : Main 10@L5@High
HDR format : SMPTE ST 2086, HDR10 compatible
Codec ID : V_MPEGH/ISO/HEVC
Duration : 1 h 54 min
Bit rate : 14.3 Mb/s
Width : 3 836 pixels
Height : 1 602 pixels
Display aspect ratio : 2.40:1
Frame rate mode : Constant
Frame rate : 23.976 FPS
Color space : YUV
Chroma subsampling : 4:2:0 (Type 2)
Bit depth : 10 bits
Bits/(Pixel*Frame) : 0.097
Stream size : 11.4 GiB (97%)
Language : English
Default : Yes
Forced : No
Color range : Limited
Color primaries : BT.2020
Transfer characteristics : PQ
Matrix coefficients : BT.2020 non-constant
Mastering display color primaries : Display P3
Mastering display luminance : min: 0.0050 cd/m2, max: 1000 cd/m2
Maximum Content Light Level : 2568 cd/m2
Maximum Frame-Average Light Level : 654 cd/m2

Audio
ID : 2
Format : AC-3
Format/Info : Audio Coding 3
Commercial name : Dolby Digital
Codec ID : A_AC3
Duration : 1 h 54 min
Bit rate mode : Constant
Bit rate : 384 kb/s
Channel(s) : 6 channels
Channel layout : L R C LFE Ls Rs
Sampling rate : 48.0 kHz
Frame rate : 31.250 FPS (1536 SPF)
Compression mode : Lossy
Stream size : 313 MiB (3%)
Language : English
Service kind : Complete Main
Default : Yes
Forced : No

Text #1
ID : 3
Format : UTF-8
Codec ID : S_TEXT/UTF8
Codec ID/Info : UTF-8 Plain Text
Duration : 1 h 41 min
Bit rate : 51 b/s
Count of elements : 1306
Stream size : 37.9 KiB (0%)
Language : English
Default : Yes
Forced : No

Text #2
ID : 4
Format : UTF-8
Codec ID : S_TEXT/UTF8
Codec ID/Info : UTF-8 Plain Text
Duration : 1 h 52 min
Bit rate : 56 b/s
Count of elements : 1798
Stream size : 46.5 KiB (0%)
Title : SDH
Language : English
Default : No
Forced : No

Text #3
ID : 5
Format : UTF-8
Codec ID : S_TEXT/UTF8
Codec ID/Info : UTF-8 Plain Text
Duration : 1 h 4 min
Bit rate : 0 b/s
Count of elements : 12
Stream size : 315 Bytes (0%)
Title : Latin American Forced
Language : Spanish
Default : No
Forced : Yes

Text #4
ID : 6
Format : UTF-8
Codec ID : S_TEXT/UTF8
Codec ID/Info : UTF-8 Plain Text
Duration : 1 h 47 min
Bit rate : 44 b/s
Count of elements : 1303
Stream size : 35.4 KiB (0%)
Title : Latin American
Language : Spanish
Default : No
Forced : No

资源速度为零或资源敏感被和谐时,推荐使用qBittorrent等下载软件,有条件的推荐115更好的下载软件!

下载地址:


游客,如果您要查看本帖隐藏内容请回复

游客,如果您要查看本帖隐藏内容请回复






上一篇:亚当计划(简繁中字)/ The Adam Project (2022) 4K高清版本下载
下一篇:替身演员(简繁中字)/The Valet (2022) 4K高清版本下载
回复

使用道具 举报

2

主题

1160

帖子

3498

积分

4K家园VIP

Rank: 9Rank: 9Rank: 9

积分
3498
发表于 2022-5-19 13:08:11 | 显示全部楼层
佩服佩服!
回复 支持 反对

使用道具 举报

0

主题

1

帖子

165

积分

新手上路

Rank: 1

积分
165
发表于 2022-5-19 14:36:49 | 显示全部楼层
看电 电影就要看4k的
回复 支持 反对

使用道具 举报

0

主题

42

帖子

1290

积分

注册会员

Rank: 2

积分
1290
发表于 2022-5-19 16:34:45 | 显示全部楼层
好电影,喜欢收藏。
回复 支持 反对

使用道具 举报

30

主题

1224

帖子

3650

积分

4K家园VIP

Rank: 9Rank: 9Rank: 9

积分
3650
发表于 2022-5-20 00:19:23 | 显示全部楼层
专业抢沙发的!哈哈
回复 支持 反对

使用道具 举报

49

主题

1536

帖子

4440

积分

4K家园VIP

Rank: 9Rank: 9Rank: 9

积分
4440
发表于 2022-5-20 03:55:26 | 显示全部楼层
没明白
回复 支持 反对

使用道具 举报

2

主题

1677

帖子

4649

积分

4K家园VIP

Rank: 9Rank: 9Rank: 9

积分
4649
发表于 2022-5-20 05:38:12 | 显示全部楼层
求沙发
回复 支持 反对

使用道具 举报

1

主题

1636

帖子

4530

积分

4K家园VIP

Rank: 9Rank: 9Rank: 9

积分
4530
发表于 2022-5-20 05:43:09 | 显示全部楼层
报告!别开枪,我就是路过来看看的。。。
回复 支持 反对

使用道具 举报

0

主题

1

帖子

6

积分

新手上路

Rank: 1

积分
6
发表于 2022-5-20 07:11:36 来自手机 | 显示全部楼层
666666
回复

使用道具 举报

0

主题

2

帖子

13

积分

新手上路

Rank: 1

积分
13
发表于 2022-5-20 17:01:17 | 显示全部楼层
感谢大神!!!!!!
回复

使用道具 举报

您需要登录后才可以回帖 登录 | 立即注册

本版积分规则

精彩图文
Archiver|手机版|TAG|Sitemap|新帖|专题|联系我们:邮箱: 4kjia.com@gmail.com   

4k家园   ©2019