[4K电影] RRR / Roudram Ranam Rudhiram (2022) 4k高清版本下载

  [复制链接]

1868

主题

2007

帖子

1万

积分

超级版主

Rank: 8Rank: 8

积分
15027
 楼主| 发表于 2022-5-22 09:18:39 | 显示全部楼层 |阅读模式
QQ图片20220520201503_副本.png

◎译  名 RRR/RRR (Rise Roar Revolt)
◎片  名 Roudram Ranam Rudhiram
◎年  代 2022
◎产  地 印度
◎类  别 剧情/动作
◎语  言 泰卢固语/印地语/泰米尔语/马拉雅拉姆语/卡纳达语
◎上映日期 2022-03-25(印度)
◎IMDb评分  8.4/10 from 64781 users
◎IMDb链接  https://www.imdb.com/title/tt8178634/
◎豆瓣评分 0/10 from 0 users
◎豆瓣链接 https://movie.douban.com/subject/30214145/
◎导  演 S·S·拉贾穆里 S.S. Rajamouli
◎编  剧 维杰耶德拉·普拉萨德 Vijayendra Prasad / 马德汉·卡尔基 Madhan Karky / S·S·拉贾穆里 S.S. Rajamouli
◎主  演 小老虎 Junior N.T.R.
       拉姆·查兰·特哈 Ram Charan Teja
       阿贾耶·德乌干 Ajay Devgan
       阿莉雅·布哈特 Alia Bhatt
       施芮娅·萨兰 Shriya Saran
       雷·史蒂文森 Ray Stevenson
       艾莉森·杜迪 Alison Doody
       Makrand Deshpande Makrand Deshpande
       马克·班宁顿 Mark Bennington
       Ahmareen Anjum  Ahmareen Anjum
       爱德华·布海克 Eduard Buhac


◎简  介


  1920年,英国总督斯科特和他的妻子凯瑟琳访问阿迪拉巴德的一个部落,并强行带走了部落里歌唱天赋异禀的小女孩玛莉,部落的保护者比姆(小老虎 饰演)为了救回玛莉,伪装成穆斯林。斯科特得知消息后,总督府的底层卫兵拉朱(拉姆·查兰·特哈 饰演)为了升职也同时为了完成他父亲遗愿和他对部落承诺,主动请愿自己可以将比姆逮捕。
  比姆和拉朱因共同拯救了一个差点葬身火海的小男孩而巧遇,他们并不认识对方,然而两人也隐藏了自己的真实身份,相互联系,成为挚友。拉朱在一次调查中发现自己的挚友就是总督要逮捕的比姆,他一边是承载了父亲的遗愿和整个部落的承诺,一边是自己的挚友,他该如何抉择…..

Video
ID : 1
Format : AVC
Format/Info : Advanced Video Codec
Format profile : [email protected]
Format settings : CABAC / 4 Ref Frames
Format settings, CABAC : Yes
Format settings, Reference : 4 frames
Codec ID : V_MPEG4/ISO/AVC
Duration : 2 h 53 min
Bit rate : 12.0 Mb/s
Width : 3 840 pixels
Height : 2 160 pixels
Display aspect ratio : 1.897
Frame rate mode : Constant
Frame rate : 25.000 FPS
Color space : YUV
Chroma subsampling : 4:2:0
Bit depth : 8 bits
Scan type : Progressive
Bits/(Pixel*Frame) : 0.058
Stream size : 14.5 GiB (96%)
Writing library : x264 core 161 r3048 b86ae3c
Encoding settings : cabac=1 / ref=2 / deblock=1:-1:-1 / analyse=0x1:0x111 / me=esa / subme=9 / psy=1 / psy_rd=1.00:0.15 / mixed_ref=1 / me_range=16 / chroma_me=1 / trellis=1 / 8x8dct=0 / cqm=0 / deadzone=21,11 / fast_pskip=1 / chroma_qp_offset=-3 / threads=18 / lookahead_threads=1 / sliced_threads=0 / nr=0 / decimate=1 / interlaced=0 / bluray_compat=0 / constrained_intra=0 / bframes=4 / b_pyramid=2 / b_adapt=1 / b_bias=0 / direct=1 / weightb=1 / open_gop=0 / weightp=2 / keyint=120 / keyint_min=61 / scenecut=0 / intra_refresh=0 / rc_lookahead=40 / rc=2pass / mbtree=1 / bitrate=12000 / ratetol=1.0 / qcomp=0.60 / qpmin=0 / qpmax=69 / qpstep=4 / cplxblur=20.0 / qblur=0.5 / ip_ratio=1.40 / aq=1:1.00
Default : Yes
Forced : No
Color range : Limited
Color primaries : BT.709
Transfer characteristics : BT.709
Matrix coefficients : BT.709

Audio
ID : 2
Format : E-AC-3
Format/Info : Enhanced AC-3
Commercial name : Dolby Digital Plus
Codec ID : A_EAC3
Duration : 2 h 53 min
Bit rate mode : Constant
Bit rate : 448 kb/s
Channel(s) : 6 channels
Channel layout : L R C LFE Ls Rs
Sampling rate : 48.0 kHz
Frame rate : 31.250 FPS (1536 SPF)
Compression mode : Lossy
Stream size : 555 MiB (4%)
Title : en
Language : English
Service kind : Complete Main
Default : Yes
Forced : No


资源速度为零或资源敏感被和谐时,推荐使用qBittorrent等下载软件,有条件的推荐115更好的下载软件!

下载地址:


游客,如果您要查看本帖隐藏内容请回复

游客,如果您要查看本帖隐藏内容请回复

游客,如果您要查看本帖隐藏内容请回复

游客,如果您要查看本帖隐藏内容请回复

游客,如果您要查看本帖隐藏内容请回复






上一篇:Good.Mourning (2022) 4K高清版本下载
下一篇:不要开枪 / Hold Your Fire (2021) 4K高清版本下载
回复

使用道具 举报

2

主题

1157

帖子

3491

积分

4K家园VIP

Rank: 9Rank: 9Rank: 9

积分
3491
发表于 2022-5-22 09:18:43 来自手机 | 显示全部楼层
沙发???
回复 支持 反对

使用道具 举报

0

主题

54

帖子

968

积分

新手上路

Rank: 1

积分
968
发表于 2022-5-22 10:06:24 | 显示全部楼层
谢谢谢谢谢谢谢
回复 支持 反对

使用道具 举报

0

主题

11

帖子

72

积分

新手上路

Rank: 1

积分
72
发表于 2022-5-22 11:31:42 | 显示全部楼层
okok   ok
回复 支持 反对

使用道具 举报

0

主题

380

帖子

2325

积分

注册会员

Rank: 2

积分
2325
发表于 2022-5-22 13:06:13 | 显示全部楼层
谢谢楼主分享
回复 支持 反对

使用道具 举报

62

主题

1602

帖子

4642

积分

4K家园VIP

Rank: 9Rank: 9Rank: 9

积分
4642
发表于 2022-5-22 13:06:51 | 显示全部楼层
感谢推荐,确实不错
回复 支持 反对

使用道具 举报

3

主题

1709

帖子

4721

积分

4K家园VIP

Rank: 9Rank: 9Rank: 9

积分
4721
发表于 2022-5-22 16:10:19 | 显示全部楼层
垃圾
回复 支持 反对

使用道具 举报

0

主题

1656

帖子

4598

积分

4K家园VIP

Rank: 9Rank: 9Rank: 9

积分
4598
发表于 2022-5-23 11:27:59 | 显示全部楼层
高手云集 果断围观
回复 支持 反对

使用道具 举报

1

主题

18

帖子

764

积分

4K家园VIP

Rank: 9Rank: 9Rank: 9

积分
764
发表于 2022-5-23 19:59:11 | 显示全部楼层
有字幕吗?字幕?
回复 支持 反对

使用道具 举报

52

主题

1481

帖子

4273

积分

4K家园VIP

Rank: 9Rank: 9Rank: 9

积分
4273
发表于 2022-5-23 20:17:50 | 显示全部楼层
支持支持再支持
回复 支持 反对

使用道具 举报

您需要登录后才可以回帖 登录 | 立即注册

本版积分规则

精彩图文
Archiver|手机版|TAG|Sitemap|新帖|专题|联系我们:邮箱: 4kjia.com@gmail.com   

4k家园   ©2019