[4K电影] 秘密特工(简繁粤中字)/The Man from U.N.C.L.E.(2015)4K高清版本下载

[复制链接]

1868

主题

2007

帖子

1万

积分

超级版主

Rank: 8Rank: 8

积分
15027
 楼主| 发表于 2022-5-23 20:15:20 | 显示全部楼层 |阅读模式
本帖最后由 最爱4K哟 于 2022-5-23 20:16 编辑

QQ图片20220523201305_副本.png

◎译  名 秘密特工/特务型战(港)/绅士密令(台)/神秘特工/来自大叔局的特工
◎片  名 The Man from U.N.C.L.E.
◎年  代 2015
◎产  地 美国/英国
◎类  别 喜剧/动作/冒险
◎语  言 英语/俄语/德语/意大利语
◎上映日期 2015-08-14(美国)/2015-08-14(英国)
◎IMDb评分  7.3/10 from 230,668 users
◎IMDb链接  http://www.imdb.com/title/tt1638355/
◎豆瓣评分 8.0/10 from 85,482 users
◎豆瓣链接 https://movie.douban.com/subject/6845667/
◎片  长 116分钟
◎导  演 盖·里奇 Guy Ritchie
◎主  演 亨利·卡维尔 Henry Cavill
       艾米·汉莫 Armie Hammer
       艾丽西亚·维坎德 Alicia Vikander
       西尔维斯特·格罗斯 Sylvester Groth
       休·格兰特 Hugh Grant
       杰瑞德·哈里斯 Jared Harris
       伊丽莎白·德比茨基 Elizabeth Debicki
       克里斯汀·伯克 Christian Berkel
       乔治·利昂·马丁内斯 Jorge Leon Martinez
       卢卡·卡尔瓦尼 Luca Calvani
       大卫·贝克汉姆 David Beckham
       丹尼尔·韦斯特伍德 Daniel Westwood


◎简  介


  影片改编自同名电视剧。《秘密特工》是1964年到1968年间的一部经典电视剧,共播出了105集,由老牌影星罗伯特·沃恩 、大卫·麦考姆联袂主演,是当年一部著名的双雄剧。故事内容是关于“执法联合指挥部”的两名特工对抗敌方组织T.H.R.U.S.H.(Technological Hierarchy for the Removal of Undesirables and the Subjugation of Humanity)

◎获奖情况

  第2届豆瓣电影年度榜单  (2015)
  最受关注的非院线电影(提名)
  11月最受关注电影(提名)

  第6届豆瓣电影鑫像奖  (2016)
  鑫豆单元 最佳喜剧片(提名)

Video
ID : 1
Format : HEVC
Format/Info : High Efficiency Video Coding
Format profile : Main 10@L5@High
HDR format : Dolby Vision, Version 1.0, dvhe.05.06, BL+RPU
Codec ID : V_MPEGH/ISO/HEVC
Duration : 1 h 56 min
Bit rate : 24.6 Mb/s
Width : 3 840 pixels
Height : 1 598 pixels
Display aspect ratio : 2.40:1
Frame rate mode : Constant
Frame rate : 23.976 (24000/1001) FPS
Color space : YUV
Chroma subsampling : 4:2:0
Bit depth : 10 bits
Bits/(Pixel*Frame) : 0.167
Stream size : 20.0 GiB (71%)
Default : Yes
Forced : No

Audio #1
ID : 2
Format : MLP FBA 16-ch
Format/Info : Meridian Lossless Packing FBA with 16-channel presentation
Commercial name : Dolby TrueHD with Dolby Atmos
Codec ID : A_TRUEHD
Duration : 1 h 56 min
Bit rate mode : Variable
Bit rate : 4 738 kb/s
Maximum bit rate : 7 545 kb/s
Channel(s) : 8 channels
Channel layout : L R C LFE Ls Rs Lb Rb
Sampling rate : 48.0 kHz
Frame rate : 1 200.000 FPS (40 SPF)
Compression mode : Lossless
Stream size : 3.85 GiB (14%)
Title : TrueHD 7.1 Atmos
Language : English
Default : Yes
Forced : No
Number of dynamic objects : 11
Bed channel count : 1 channel
Bed channel configuration : LFE

Audio #2
ID : 3
Format : DTS XLL
Format/Info : Digital Theater Systems
Commercial name : DTS-HD Master Audio
Codec ID : A_DTS
Duration : 1 h 56 min
Bit rate mode : Variable
Bit rate : 4 025 kb/s
Channel(s) : 8 channels
Channel layout : C L R LFE Lb Rb Lss Rss
Sampling rate : 48.0 kHz
Frame rate : 93.750 FPS (512 SPF)
Bit depth : 24 bits
Compression mode : Lossless
Delay relative to video : 2 ms
Stream size : 3.27 GiB (12%)
Title : DTS-HD MA 7.;1
Language : English
Default : No
Forced : No

Audio #3
ID : 4
Format : AC-3
Format/Info : Audio Coding 3
Commercial name : Dolby Digital
Format settings : Dolby Surround EX
Codec ID : A_AC3
Duration : 1 h 56 min
Bit rate mode : Constant
Bit rate : 384 kb/s
Channel(s) : 6 channels
Channel layout : L R C LFE Ls Rs
Sampling rate : 48.0 kHz
Frame rate : 31.250 FPS (1536 SPF)
Compression mode : Lossy
Delay relative to video : 2 ms
Stream size : 320 MiB (1%)
Title : DD 5.1
Language : English
Service kind : Complete Main
Default : No
Forced : No

Audio #4
ID : 5
Format : E-AC-3 JOC
Format/Info : Enhanced AC-3 with Joint Object Coding
Commercial name : Dolby Digital Plus with Dolby Atmos
Codec ID : A_EAC3
Duration : 1 h 56 min
Bit rate mode : Constant
Bit rate : 768 kb/s
Channel(s) : 6 channels
Channel layout : L R C LFE Ls Rs
Sampling rate : 48.0 kHz
Frame rate : 31.250 FPS (1536 SPF)
Compression mode : Lossy
Stream size : 640 MiB (2%)
Language : English
Service kind : Complete Main
Default : Yes
Forced : No
Complexity index : 16
Number of dynamic objects : 15
Bed channel count : 1 channel
Bed channel configuration : LFE

Text #1
ID : 6
Format : UTF-8
Codec ID : S_TEXT/UTF8
Codec ID/Info : UTF-8 Plain Text
Duration : 1 h 55 min
Bit rate : 54 b/s
Count of elements : 1643
Stream size : 46.4 KiB (0%)
Title : English CC
Language : English
Default : Yes
Forced : No

Text #2
ID : 7
Format : UTF-8
Codec ID : S_TEXT/UTF8
Codec ID/Info : UTF-8 Plain Text
Duration : 1 h 55 min
Bit rate : 65 b/s
Count of elements : 1273
Stream size : 55.4 KiB (0%)
Title : Arabic
Language : Arabic
Default : No
Forced : No

Text #3
ID : 8
Format : UTF-8
Codec ID : S_TEXT/UTF8
Codec ID/Info : UTF-8 Plain Text
Duration : 1 h 55 min
Bit rate : 75 b/s
Count of elements : 1238
Stream size : 64.3 KiB (0%)
Title : Bulgarian
Language : Bulgarian
Default : No
Forced : No

Text #4
ID : 9
Format : UTF-8
Codec ID : S_TEXT/UTF8
Codec ID/Info : UTF-8 Plain Text
Duration : 1 h 55 min
Bit rate : 40 b/s
Count of elements : 1168
Stream size : 34.0 KiB (0%)
Title : 中文(简体)
Language : 中文
Default : No
Forced : No

Text #5
ID : 10
Format : UTF-8
Codec ID : S_TEXT/UTF8
Codec ID/Info : UTF-8 Plain Text
Duration : 1 h 55 min
Bit rate : 41 b/s
Count of elements : 1185
Stream size : 35.5 KiB (0%)
Title : 中文(繁体)
Language : 中文
Default : No
Forced : No


Text #6
ID : 11
Format : UTF-8
Codec ID : S_TEXT/UTF8
Codec ID/Info : UTF-8 Plain Text
Duration : 1 h 55 min
Bit rate : 46 b/s
Count of elements : 1259
Stream size : 39.0 KiB (0%)
Title : Czech
Language : Czech
Default : No
Forced : No

Text #7
ID : 12
Format : UTF-8
Codec ID : S_TEXT/UTF8
Codec ID/Info : UTF-8 Plain Text
Duration : 1 h 55 min
Bit rate : 39 b/s
Count of elements : 891
Stream size : 33.8 KiB (0%)
Title : Danish
Language : Danish
Default : No
Forced : No

Text #8
ID : 13
Format : UTF-8
Codec ID : S_TEXT/UTF8
Codec ID/Info : UTF-8 Plain Text
Duration : 1 h 48 min
Bit rate : 58 b/s
Count of elements : 1258
Stream size : 46.1 KiB (0%)
Title : German
Language : German
Default : No
Forced : No

Text #9
ID : 14
Format : UTF-8
Codec ID : S_TEXT/UTF8
Codec ID/Info : UTF-8 Plain Text
Duration : 1 h 55 min
Bit rate : 79 b/s
Count of elements : 1243
Stream size : 67.6 KiB (0%)
Title : Greek
Language : Greek
Default : No
Forced : No

Text #10
ID : 15
Format : UTF-8
Codec ID : S_TEXT/UTF8
Codec ID/Info : UTF-8 Plain Text
Duration : 1 h 55 min
Bit rate : 48 b/s
Count of elements : 1294
Stream size : 41.3 KiB (0%)
Title : Spanish Latin American
Language : Spanish
Default : No
Forced : No

Text #11
ID : 16
Format : UTF-8
Codec ID : S_TEXT/UTF8
Codec ID/Info : UTF-8 Plain Text
Duration : 1 h 55 min
Bit rate : 46 b/s
Count of elements : 1229
Stream size : 39.2 KiB (0%)
Title : Spanish European
Language : Spanish
Default : No
Forced : No

Text #12
ID : 17
Format : UTF-8
Codec ID : S_TEXT/UTF8
Codec ID/Info : UTF-8 Plain Text
Duration : 1 h 55 min
Bit rate : 36 b/s
Count of elements : 1320
Stream size : 31.1 KiB (0%)
Title : Estonian
Language : Estonian
Default : No
Forced : No

Text #13
ID : 18
Format : UTF-8
Codec ID : S_TEXT/UTF8
Codec ID/Info : UTF-8 Plain Text
Duration : 1 h 50 min
Bit rate : 39 b/s
Count of elements : 1016
Stream size : 32.3 KiB (0%)
Title : Finnish
Language : Finnish
Default : No
Forced : No

Text #14
ID : 19
Format : UTF-8
Codec ID : S_TEXT/UTF8
Codec ID/Info : UTF-8 Plain Text
Duration : 1 h 48 min
Bit rate : 44 b/s
Count of elements : 1268
Stream size : 35.5 KiB (0%)
Title : French European
Language : French
Default : No
Forced : No

Text #15
ID : 20
Format : UTF-8
Codec ID : S_TEXT/UTF8
Codec ID/Info : UTF-8 Plain Text
Duration : 1 h 55 min
Bit rate : 72 b/s
Count of elements : 1264
Stream size : 61.5 KiB (0%)
Title : Hebrew
Language : Hebrew
Default : No
Forced : No

Text #16
ID : 21
Format : UTF-8
Codec ID : S_TEXT/UTF8
Codec ID/Info : UTF-8 Plain Text
Duration : 1 h 55 min
Bit rate : 47 b/s
Count of elements : 1242
Stream size : 40.7 KiB (0%)
Title : Hungarian
Language : Hungarian
Default : No
Forced : No

Text #17
ID : 22
Format : UTF-8
Codec ID : S_TEXT/UTF8
Codec ID/Info : UTF-8 Plain Text
Duration : 1 h 50 min
Bit rate : 47 b/s
Count of elements : 1292
Stream size : 38.3 KiB (0%)
Title : Indonesian
Language : Indonesian
Default : No
Forced : No

Text #18
ID : 23
Format : UTF-8
Codec ID : S_TEXT/UTF8
Codec ID/Info : UTF-8 Plain Text
Duration : 1 h 55 min
Bit rate : 51 b/s
Count of elements : 1270
Stream size : 43.9 KiB (0%)
Title : Italian
Language : Italian
Default : No
Forced : No

Text #19
ID : 24
Format : UTF-8
Codec ID : S_TEXT/UTF8
Codec ID/Info : UTF-8 Plain Text
Duration : 1 h 50 min
Bit rate : 41 b/s
Count of elements : 1246
Stream size : 33.6 KiB (0%)
Title : Japanese
Language : Japanese
Default : No
Forced : No

Text #20
ID : 25
Format : UTF-8
Codec ID : S_TEXT/UTF8
Codec ID/Info : UTF-8 Plain Text
Duration : 1 h 50 min
Bit rate : 47 b/s
Count of elements : 1264
Stream size : 38.1 KiB (0%)
Title : Korean
Language : Korean
Default : No
Forced : No

Text #21
ID : 26
Format : UTF-8
Codec ID : S_TEXT/UTF8
Codec ID/Info : UTF-8 Plain Text
Duration : 1 h 55 min
Bit rate : 44 b/s
Count of elements : 1294
Stream size : 37.4 KiB (0%)
Title : Lithuanian
Language : Lithuanian
Default : No
Forced : No

Text #22
ID : 27
Format : UTF-8
Codec ID : S_TEXT/UTF8
Codec ID/Info : UTF-8 Plain Text
Duration : 1 h 55 min
Bit rate : 43 b/s
Count of elements : 1334
Stream size : 37.2 KiB (0%)
Title : Latvian
Language : Latvian
Default : No
Forced : No

Text #23
ID : 28
Format : UTF-8
Codec ID : S_TEXT/UTF8
Codec ID/Info : UTF-8 Plain Text
Duration : 1 h 50 min
Bit rate : 43 b/s
Count of elements : 1026
Stream size : 35.1 KiB (0%)
Title : Dutch
Language : Dutch
Default : No
Forced : No

Text #24
ID : 29
Format : UTF-8
Codec ID : S_TEXT/UTF8
Codec ID/Info : UTF-8 Plain Text
Duration : 1 h 50 min
Bit rate : 45 b/s
Count of elements : 928
Stream size : 36.7 KiB (0%)
Title : Norwegian
Language : Norwegian
Default : No
Forced : No

Text #25
ID : 30
Format : UTF-8
Codec ID : S_TEXT/UTF8
Codec ID/Info : UTF-8 Plain Text
Duration : 1 h 55 min
Bit rate : 41 b/s
Count of elements : 1233
Stream size : 34.9 KiB (0%)
Title : Polish
Language : Polish
Default : No
Forced : No

Text #26
ID : 31
Format : UTF-8
Codec ID : S_TEXT/UTF8
Codec ID/Info : UTF-8 Plain Text
Duration : 1 h 55 min
Bit rate : 46 b/s
Count of elements : 1247
Stream size : 39.2 KiB (0%)
Title : Portuguese Brazilian
Language : Portuguese
Default : No
Forced : No

Text #27
ID : 32
Format : UTF-8
Codec ID : S_TEXT/UTF8
Codec ID/Info : UTF-8 Plain Text
Duration : 1 h 55 min
Bit rate : 46 b/s
Count of elements : 1195
Stream size : 39.9 KiB (0%)
Title : Portuguese European
Language : Portuguese
Default : No
Forced : No

Text #28
ID : 33
Format : UTF-8
Codec ID : S_TEXT/UTF8
Codec ID/Info : UTF-8 Plain Text
Duration : 1 h 55 min
Bit rate : 46 b/s
Count of elements : 1229
Stream size : 39.4 KiB (0%)
Title : Romanian
Language : Romanian
Default : No
Forced : No

Text #29
ID : 34
Format : UTF-8
Codec ID : S_TEXT/UTF8
Codec ID/Info : UTF-8 Plain Text
Duration : 1 h 55 min
Bit rate : 77 b/s
Count of elements : 1085
Stream size : 65.4 KiB (0%)
Title : Russian
Language : Russian
Default : No
Forced : No

Text #30
ID : 35
Format : UTF-8
Codec ID : S_TEXT/UTF8
Codec ID/Info : UTF-8 Plain Text
Duration : 1 h 55 min
Bit rate : 37 b/s
Count of elements : 892
Stream size : 31.6 KiB (0%)
Title : Slovenian
Language : Slovenian
Default : No
Forced : No

Text #31
ID : 36
Format : UTF-8
Codec ID : S_TEXT/UTF8
Codec ID/Info : UTF-8 Plain Text
Duration : 1 h 48 min
Bit rate : 46 b/s
Count of elements : 953
Stream size : 37.4 KiB (0%)
Title : Swedish
Language : Swedish
Default : No
Forced : No

Text #32
ID : 37
Format : UTF-8
Codec ID : S_TEXT/UTF8
Codec ID/Info : UTF-8 Plain Text
Duration : 1 h 55 min
Bit rate : 113 b/s
Count of elements : 1251
Stream size : 96.3 KiB (0%)
Title : Thai
Language : Thai
Default : No
Forced : No

Text #33
ID : 38
Format : UTF-8
Codec ID : S_TEXT/UTF8
Codec ID/Info : UTF-8 Plain Text
Duration : 1 h 55 min
Bit rate : 47 b/s
Count of elements : 1252
Stream size : 40.1 KiB (0%)
Title : Turkish
Language : Turkish
Default : No
Forced : No

Text #34
ID : 39
Format : UTF-8
Codec ID : S_TEXT/UTF8
Codec ID/Info : UTF-8 Plain Text
Duration : 1 h 55 min
Bit rate : 38 b/s
Count of elements : 1171
Stream size : 32.9 KiB (0%)
Title : 中文(粤语)
Language : Chinese
Default : No
Forced : No


Text #35
ID : 40
Format : PGS
Muxing mode : zlib
Codec ID : S_HDMV/PGS
Codec ID/Info : Picture based subtitle format used on BDs/HD-DVDs
Duration : 1 h 53 min
Bit rate : 30.1 kb/s
Count of elements : 2662
Stream size : 24.5 MiB (0%)
Title : SDH
Language : English
Default : No
Forced : No

Text #36
ID : 41
Format : PGS
Muxing mode : zlib
Codec ID : S_HDMV/PGS
Codec ID/Info : Picture based subtitle format used on BDs/HD-DVDs
Duration : 1 h 56 min
Bit rate : 14.2 kb/s
Count of elements : 2548
Stream size : 11.8 MiB (0%)
Language : Arabic
Default : No
Forced : No

Text #37
ID : 42
Format : PGS
Muxing mode : zlib
Codec ID : S_HDMV/PGS
Codec ID/Info : Picture based subtitle format used on BDs/HD-DVDs
Duration : 1 h 56 min
Bit rate : 26.8 kb/s
Count of elements : 2478
Stream size : 22.3 MiB (0%)
Language : Bulgarian
Default : No
Forced : No

Text #38
ID : 43
Format : PGS
Muxing mode : zlib
Codec ID : S_HDMV/PGS
Codec ID/Info : Picture based subtitle format used on BDs/HD-DVDs
Duration : 1 h 56 min
Bit rate : 23.3 kb/s
Count of elements : 2342
Stream size : 19.3 MiB (0%)
Title : Cantonese
Language : Chinese
Default : No
Forced : No

Text #39
ID : 44
Format : PGS
Muxing mode : zlib
Codec ID : S_HDMV/PGS
Codec ID/Info : Picture based subtitle format used on BDs/HD-DVDs
Duration : 1 h 56 min
Bit rate : 24.2 kb/s
Count of elements : 2338
Stream size : 20.1 MiB (0%)
Title : Simplified
Language : Chinese
Default : No
Forced : No

Text #40
ID : 45
Format : PGS
Muxing mode : zlib
Codec ID : S_HDMV/PGS
Codec ID/Info : Picture based subtitle format used on BDs/HD-DVDs
Duration : 1 h 56 min
Bit rate : 24.9 kb/s
Count of elements : 2372
Stream size : 20.7 MiB (0%)
Title : Traditional
Language : Chinese
Default : No
Forced : No

Text #41
ID : 46
Format : PGS
Muxing mode : zlib
Codec ID : S_HDMV/PGS
Codec ID/Info : Picture based subtitle format used on BDs/HD-DVDs
Duration : 1 h 56 min
Bit rate : 26.9 kb/s
Count of elements : 2444
Stream size : 22.4 MiB (0%)
Language : Croatian
Default : No
Forced : No

Text #42
ID : 47
Format : PGS
Muxing mode : zlib
Codec ID : S_HDMV/PGS
Codec ID/Info : Picture based subtitle format used on BDs/HD-DVDs
Duration : 1 h 56 min
Bit rate : 25.9 kb/s
Count of elements : 2516
Stream size : 21.5 MiB (0%)
Language : Czech
Default : No
Forced : No

Text #43
ID : 48
Format : PGS
Muxing mode : zlib
Codec ID : S_HDMV/PGS
Codec ID/Info : Picture based subtitle format used on BDs/HD-DVDs
Duration : 1 h 56 min
Bit rate : 22.5 kb/s
Count of elements : 2640
Stream size : 18.7 MiB (0%)
Language : Estonian
Default : No
Forced : No

Text #44
ID : 49
Format : PGS
Muxing mode : zlib
Codec ID : S_HDMV/PGS
Codec ID/Info : Picture based subtitle format used on BDs/HD-DVDs
Duration : 1 h 56 min
Bit rate : 21.3 kb/s
Count of elements : 2530
Stream size : 17.7 MiB (0%)
Language : Hebrew
Default : No
Forced : No

Text #45
ID : 50
Format : PGS
Muxing mode : zlib
Codec ID : S_HDMV/PGS
Codec ID/Info : Picture based subtitle format used on BDs/HD-DVDs
Duration : 1 h 56 min
Bit rate : 28.1 kb/s
Count of elements : 2486
Stream size : 23.3 MiB (0%)
Language : Hungarian
Default : No
Forced : No

Text #46
ID : 51
Format : PGS
Muxing mode : zlib
Codec ID : S_HDMV/PGS
Codec ID/Info : Picture based subtitle format used on BDs/HD-DVDs
Duration : 1 h 56 min
Bit rate : 28.9 kb/s
Count of elements : 2572
Stream size : 24.0 MiB (0%)
Language : Indonesian
Default : No
Forced : No

Text #47
ID : 52
Format : PGS
Muxing mode : zlib
Codec ID : S_HDMV/PGS
Codec ID/Info : Picture based subtitle format used on BDs/HD-DVDs
Duration : 1 h 50 min
Bit rate : 21.8 kb/s
Count of elements : 2651
Stream size : 17.2 MiB (0%)
Language : Japanese
Default : No
Forced : No

Text #48
ID : 53
Format : PGS
Muxing mode : zlib
Codec ID : S_HDMV/PGS
Codec ID/Info : Picture based subtitle format used on BDs/HD-DVDs
Duration : 1 h 56 min
Bit rate : 19.2 kb/s
Count of elements : 2502
Stream size : 15.9 MiB (0%)
Language : Korean
Default : No
Forced : No

Text #49
ID : 54
Format : PGS
Muxing mode : zlib
Codec ID : S_HDMV/PGS
Codec ID/Info : Picture based subtitle format used on BDs/HD-DVDs
Duration : 1 h 56 min
Bit rate : 24.8 kb/s
Count of elements : 2670
Stream size : 20.6 MiB (0%)
Language : Latvian
Default : No
Forced : No

Text #50
ID : 55
Format : PGS
Muxing mode : zlib
Codec ID : S_HDMV/PGS
Codec ID/Info : Picture based subtitle format used on BDs/HD-DVDs
Duration : 1 h 56 min
Bit rate : 25.7 kb/s
Count of elements : 2580
Stream size : 21.4 MiB (0%)
Language : Lithuanian
Default : No
Forced : No

Text #51
ID : 56
Format : PGS
Muxing mode : zlib
Codec ID : S_HDMV/PGS
Codec ID/Info : Picture based subtitle format used on BDs/HD-DVDs
Duration : 1 h 56 min
Bit rate : 24.4 kb/s
Count of elements : 2462
Stream size : 20.2 MiB (0%)
Language : Polish
Default : No
Forced : No

Text #52
ID : 57
Format : PGS
Muxing mode : zlib
Codec ID : S_HDMV/PGS
Codec ID/Info : Picture based subtitle format used on BDs/HD-DVDs
Duration : 1 h 56 min
Bit rate : 27.7 kb/s
Count of elements : 2392
Stream size : 23.0 MiB (0%)
Language : Portuguese
Default : No
Forced : No

Text #53
ID : 58
Format : PGS
Muxing mode : zlib
Codec ID : S_HDMV/PGS
Codec ID/Info : Picture based subtitle format used on BDs/HD-DVDs
Duration : 1 h 56 min
Bit rate : 25.7 kb/s
Count of elements : 2456
Stream size : 21.3 MiB (0%)
Language : Romanian
Default : No
Forced : No

Text #54
ID : 59
Format : PGS
Muxing mode : zlib
Codec ID : S_HDMV/PGS
Codec ID/Info : Picture based subtitle format used on BDs/HD-DVDs
Duration : 1 h 56 min
Bit rate : 27.1 kb/s
Count of elements : 2172
Stream size : 22.5 MiB (0%)
Language : Russian
Default : No
Forced : No

Text #55
ID : 60
Format : PGS
Muxing mode : zlib
Codec ID : S_HDMV/PGS
Codec ID/Info : Picture based subtitle format used on BDs/HD-DVDs
Duration : 1 h 56 min
Bit rate : 21.6 kb/s
Count of elements : 1780
Stream size : 17.9 MiB (0%)
Language : Slovenian
Default : No
Forced : No

Text #56
ID : 61
Format : PGS
Muxing mode : zlib
Codec ID : S_HDMV/PGS
Codec ID/Info : Picture based subtitle format used on BDs/HD-DVDs
Duration : 1 h 56 min
Bit rate : 27.7 kb/s
Count of elements : 2504
Stream size : 23.0 MiB (0%)
Language : Thai
Default : No
Forced : No

Text #57
ID : 62
Format : PGS
Muxing mode : zlib
Codec ID : S_HDMV/PGS
Codec ID/Info : Picture based subtitle format used on BDs/HD-DVDs
Duration : 1 h 56 min
Bit rate : 26.8 kb/s
Count of elements : 2502
Stream size : 22.3 MiB (0%)
Language : Turkish
Default : No
Forced : No

Menu
00:00:00.000 : en:Chapter 01
00:15:18.000 : en:Chapter 02
00:23:10.000 : en:Chapter 03
00:32:08.000 : en:Chapter 04
00:40:34.000 : en:Chapter 05
00:49:06.000 : en:Chapter 06
00:59:22.000 : en:Chapter 07
01:08:51.000 : en:Chapter 08
01:20:27.000 : en:Chapter 09
01:29:46.000 : en:Chapter 10
01:43:20.000 : en:Chapter 11
01:49:22.000 : en:Chapter 12

资源速度为零或资源敏感被和谐时,推荐使用qBittorrent等下载软件,有条件的推荐115更好的下载软件!

下载地址:


游客,如果您要查看本帖隐藏内容请回复

游客,如果您要查看本帖隐藏内容请回复

游客,如果您要查看本帖隐藏内容请回复

游客,如果您要查看本帖隐藏内容请回复


以下为以往链接(无中字版本)
游客,如果您要查看本帖隐藏内容请回复





上一篇:小妇人(简繁中字)/ Little Women (1994) 4K高清版本下载
下一篇:热带惊雷(简繁粤中字)/Tropic Thunder(2008)4K高清版本下载
回复

使用道具 举报

2

主题

1308

帖子

3942

积分

4K家园VIP

Rank: 9Rank: 9Rank: 9

积分
3942
发表于 2022-5-23 20:15:25 | 显示全部楼层
秀起来~
回复 支持 反对

使用道具 举报

2

主题

1390

帖子

4194

积分

4K家园VIP

Rank: 9Rank: 9Rank: 9

积分
4194
发表于 2022-5-23 20:15:25 | 显示全部楼层
楼猪V5啊
回复 支持 反对

使用道具 举报

3

主题

1468

帖子

4258

积分

4K家园VIP

Rank: 9Rank: 9Rank: 9

积分
4258
发表于 2022-5-23 22:16:17 | 显示全部楼层
众里寻他千百度,蓦然回首在这里!
回复 支持 反对

使用道具 举报

0

主题

1

帖子

6

积分

新手上路

Rank: 1

积分
6
发表于 2022-5-23 22:28:55 | 显示全部楼层

young red head nude

young red head nude
回复 支持 反对

使用道具 举报

0

主题

42

帖子

1290

积分

注册会员

Rank: 2

积分
1290
发表于 2022-5-24 07:32:39 | 显示全部楼层
谢谢楼主分享优质资源!
回复 支持 反对

使用道具 举报

30

主题

1224

帖子

3650

积分

4K家园VIP

Rank: 9Rank: 9Rank: 9

积分
3650
发表于 2022-5-24 19:06:19 | 显示全部楼层
没明白
回复 支持 反对

使用道具 举报

41

主题

1531

帖子

4425

积分

4K家园VIP

Rank: 9Rank: 9Rank: 9

积分
4425
发表于 2022-5-25 04:27:44 | 显示全部楼层
感谢楼主的分享,还是阔以滴
回复 支持 反对

使用道具 举报

1

主题

3

帖子

10

积分

新手上路

Rank: 1

积分
10
发表于 2022-5-25 05:57:36 来自手机 | 显示全部楼层
感谢
回复

使用道具 举报

0

主题

380

帖子

2325

积分

注册会员

Rank: 2

积分
2325
发表于 2022-5-25 12:11:13 | 显示全部楼层
感谢楼主的分享
回复 支持 反对

使用道具 举报

您需要登录后才可以回帖 登录 | 立即注册

本版积分规则

精彩图文
Archiver|手机版|TAG|Sitemap|新帖|专题|联系我们:邮箱: 4kjia.com@gmail.com   

4k家园   ©2019