侠探杰克 (简繁中字) (2022) / 第一季全8集/4K高清版本下载

[复制链接]

203

主题

226

帖子

2233

积分

版主

Rank: 7Rank: 7Rank: 7

积分
2233
 楼主| 发表于 2022-5-24 10:49:32 | 显示全部楼层 |阅读模式
QQ图片20220524103545_副本.png

◎译  名 侠探杰克 第一季 / 烈探狙击(港) / 神隐任务(台) / 杰克·理查尔 / 游侠杰克 / Jack Reacher
◎片  名 Reacher Season 1
◎年  代 2022
◎产  地 美国
◎类  别 动作
◎语  言 英语
◎上映日期 2022-02-04(美国)
◎IMDb评分  8.1/10 from 97218 users
◎IMDb链接  https://www.imdb.com/title/tt9288030/
◎豆瓣评分 8.0/10 (3978人评价)
◎豆瓣链接 https://movie.douban.com/subject/30378897/
◎集  数 8
◎片  长 60分钟
◎编  剧 李·查德 Lee Child / 尼克·桑多拉 Nick Santora
◎演  员 阿兰·里奇森 Alan Ritchson
       马尔科姆·古德温 Malcolm Goodwin
       薇拉·菲茨杰拉德 Willa Fitzgerald
       克莉斯汀·克鲁克 Kristin Kreuk
       布鲁斯·麦克吉尔 Bruce McGill
       克里斯·韦伯斯特 Chris Webster
       哈维·吉兰 Harvey Guillen
       马克斯威尔·詹金斯 Maxwell Jenkins
       库里·格拉汉姆 Currie Graham
       马克·本达维德 Marc Bendavid
       威利·C·卡彭特 Willie C. Carpenter
       乔纳森考斯庚 Jonathan Koensgen
       马修·马斯登 Matthew Marsden
       拉娜·珍·科洛斯特奇 Lara Jean Chorostecki
       阿莉·约翰逊 Ali Johnson
       迪伦·特罗布里奇 Dylan Trowbridge
       休·汤普森 Hugh Thompson
       玛丽亚·斯坦 Maria Sten
       伊里·哈姆 Eli Ham
       克里斯托弗·拉塞尔 Christopher Russell
       亚历桑德拉·卡斯蒂略 Alexandra Castillo
       布雷丹·贝塞尔 Brendan Beiser
       杰基·理查德森 Jackie Richardson
       罗恩·米德 Rohan Mead
       劳里·默多克 Laurie Murdoch
       特蕾西·鲁尼 Tracey Rooney
       吉姆·查德 Jim Chad



◎简  介


  Jack Reacher在小说中曾经是美国陆军的军警,离开美军后他以调查员身份接手调查一些可疑或有危险性的案件。

Video
ID : 1
Format : HEVC
Format/Info : High Efficiency Video Coding
Format profile : Main 10@L5.1@High
Codec ID : V_MPEGH/ISO/HEVC
Duration : 52 min 54 s
Bit rate : 48.6 Mb/s
Width : 3 840 pixels
Height : 1 920 pixels
Display aspect ratio : 2.000
Frame rate mode : Constant
Frame rate : 23.976 (24000/1001) FPS
Color space : YUV
Chroma subsampling : 4:2:0
Bit depth : 10 bits
Bits/(Pixel*Frame) : 0.275
Stream size : 18.0 GiB (99%)
Writing library : x265 3.5+20-17839cc0d:[Windows][GCC 11.2.0][64 bit] 10bit
Encoding settings : cpuid=1111039 / frame-threads=4 / numa-pools=24 / wpp / no-pmode / no-pme / no-psnr / no-ssim / log-level=2 / input-csp=1 / input-res=3840x1920 / interlace=0 / total-frames=76107 / level-idc=51 / high-tier=1 / uhd-bd=0 / ref=5 / no-allow-non-conformance / repeat-headers / annexb / aud / no-eob / no-eos / hrd / info / hash=0 / no-temporal-layers / open-gop / min-keyint=23 / keyint=250 / gop-lookahead=0 / bframes=8 / b-adapt=2 / b-pyramid / bframe-bias=0 / rc-lookahead=40 / lookahead-slices=4 / scenecut=40 / no-hist-scenecut / radl=0 / no-splice / no-intra-refresh / ctu=64 / min-cu-size=8 / no-rect / no-amp / max-tu-size=32 / tu-inter-depth=4 / tu-intra-depth=4 / limit-tu=4 / rdoq-level=2 / dynamic-rd=0.00 / no-ssim-rd / signhide / no-tskip / nr-intra=0 / nr-inter=0 / no-constrained-intra / strong-intra-smoothing / max-merge=4 / limit-refs=3 / limit-modes / me=3 / subme=5 / merange=57 / temporal-mvp / no-frame-dup / no-hme / weightp / weightb / no-analyze-src-pics / deblock=-3:-3 / no-sao / no-sao-non-deblock / rd=4 / selective-sao=0 / no-early-skip / rskip / no-fast-intra / no-tskip-fast / no-cu-lossless / b-intra / no-splitrd-skip / rdpenalty=0 / psy-rd=2.00 / psy-rdoq=4.00 / no-rd-refine / no-lossless / cbqpoffs=0 / crqpoffs=0 / rc=crf / crf=19.0 / qcomp=0.60 / qpstep=4 / stats-write=0 / stats-read=0 / vbv-maxrate=160000 / vbv-bufsize=160000 / vbv-init=0.9 / min-vbv-fullness=50.0 / max-vbv-fullness=80.0 / crf-max=0.0 / crf-min=0.0 / ipratio=1.30 / pbratio=1.20 / aq-mode=1 / aq-strength=0.80 / no-cutree / zone-count=0 / no-strict-cbr / qg-size=32 / no-rc-grain / qpmax=69 / qpmin=0 / no-const-vbv / sar=1 / overscan=0 / videoformat=5 / range=0 / colorprim=1 / transfer=1 / colormatrix=1 / chromaloc=0 / display-window=0 / cll=0,0 / min-luma=0 / max-luma=1023 / log2-max-poc-lsb=8 / vui-timing-info / vui-hrd-info / slices=1 / no-opt-qp-pps / no-opt-ref-list-length-pps / no-multi-pass-opt-rps / scenecut-bias=0.05 / hist-threshold=0.03 / no-opt-cu-delta-qp / no-aq-motion / no-hdr10 / no-hdr10-opt / no-dhdr10-opt / no-idr-recovery-sei / analysis-reuse-level=0 / analysis-save-reuse-level=0 / analysis-load-reuse-level=0 / scale-factor=0 / refine-intra=0 / refine-inter=0 / refine-mv=1 / refine-ctu-distortion=0 / no-limit-sao / ctu-info=0 / no-lowpass-dct / refine-analysis-type=0 / copy-pic=1 / max-ausize-factor=1.0 / no-dynamic-refine / no-single-sei / no-hevc-aq / no-svt / no-field / qp-adaptation-range=1.00 / scenecut-aware-qp=0conformance-window-offsets / right=0 / bottom=0 / decoder-max-rate=0 / no-vbv-live-multi-pass
Default : Yes
Forced : No
Color range : Limited
Color primaries : BT.709
Transfer characteristics : BT.709
Matrix coefficients : BT.709

Audio
ID : 2
Format : E-AC-3
Format/Info : Enhanced AC-3
Commercial name : Dolby Digital Plus
Codec ID : A_EAC3
Duration : 52 min 54 s
Bit rate mode : Constant
Bit rate : 640 kb/s
Channel(s) : 6 channels
Channel layout : L R C LFE Ls Rs
Sampling rate : 48.0 kHz
Frame rate : 31.250 FPS (1536 SPF)
Compression mode : Lossy
Stream size : 242 MiB (1%)
Language : English
Service kind : Complete Main
Default : Yes
Forced : No

Text #1
ID : 3
Format : UTF-8
Codec ID : S_TEXT/UTF8
Codec ID/Info : UTF-8 Plain Text
Duration : 51 min 30 s
Bit rate : 76 b/s
Count of elements : 903
Stream size : 28.9 KiB (0%)
Language : English
Default : No
Forced : No

Text #2
ID : 4
Format : UTF-8
Codec ID : S_TEXT/UTF8
Codec ID/Info : UTF-8 Plain Text
Duration : 51 min 36 s
Bit rate : 82 b/s
Count of elements : 988
Stream size : 31.4 KiB (0%)
Title : SDH
Language : English
Default : No
Forced : No

Text #3
ID : 5
Format : UTF-8
Codec ID : S_TEXT/UTF8
Codec ID/Info : UTF-8 Plain Text
Duration : 51 min 31 s
Bit rate : 113 b/s
Count of elements : 659
Stream size : 42.8 KiB (0%)
Language : Arabic
Default : No
Forced : No

Text #4
ID : 6
Format : UTF-8
Codec ID : S_TEXT/UTF8
Codec ID/Info : UTF-8 Plain Text
Duration : 51 min 31 s
Bit rate : 68 b/s
Count of elements : 658
Stream size : 25.9 KiB (0%)
Language : Czech
Default : No
Forced : No

Text #5
ID : 7
Format : UTF-8
Codec ID : S_TEXT/UTF8
Codec ID/Info : UTF-8 Plain Text
Duration : 51 min 31 s
Bit rate : 66 b/s
Count of elements : 658
Stream size : 25.3 KiB (0%)
Language : Danish
Default : No
Forced : No

Text #6
ID : 8
Format : UTF-8
Codec ID : S_TEXT/UTF8
Codec ID/Info : UTF-8 Plain Text
Duration : 51 min 31 s
Bit rate : 69 b/s
Count of elements : 658
Stream size : 26.1 KiB (0%)
Language : German
Default : No
Forced : No

Text #7
ID : 9
Format : UTF-8
Codec ID : S_TEXT/UTF8
Codec ID/Info : UTF-8 Plain Text
Duration : 51 min 31 s
Bit rate : 127 b/s
Count of elements : 655
Stream size : 48.0 KiB (0%)
Language : Greek
Default : No
Forced : No

Text #8
ID : 10
Format : UTF-8
Codec ID : S_TEXT/UTF8
Codec ID/Info : UTF-8 Plain Text
Duration : 51 min 31 s
Bit rate : 66 b/s
Count of elements : 657
Stream size : 25.2 KiB (0%)
Title : Latinoamérica
Language : Spanish
Default : No
Forced : No

Text #9
ID : 11
Format : UTF-8
Codec ID : S_TEXT/UTF8
Codec ID/Info : UTF-8 Plain Text
Duration : 51 min 31 s
Bit rate : 64 b/s
Count of elements : 653
Stream size : 24.2 KiB (0%)
Title : España
Language : Spanish
Default : No
Forced : No

Text #10
ID : 12
Format : UTF-8
Codec ID : S_TEXT/UTF8
Codec ID/Info : UTF-8 Plain Text
Duration : 51 min 31 s
Bit rate : 58 b/s
Count of elements : 654
Stream size : 22.2 KiB (0%)
Language : Finnish
Default : No
Forced : No

Text #11
ID : 13
Format : UTF-8
Codec ID : S_TEXT/UTF8
Codec ID/Info : UTF-8 Plain Text
Duration : 51 min 31 s
Bit rate : 68 b/s
Count of elements : 650
Stream size : 25.7 KiB (0%)
Language : fil
Default : No
Forced : No

Text #12
ID : 14
Format : UTF-8
Codec ID : S_TEXT/UTF8
Codec ID/Info : UTF-8 Plain Text
Duration : 51 min 31 s
Bit rate : 70 b/s
Count of elements : 655
Stream size : 26.5 KiB (0%)
Language : French
Default : No
Forced : No

Text #13
ID : 15
Format : UTF-8
Codec ID : S_TEXT/UTF8
Codec ID/Info : UTF-8 Plain Text
Duration : 51 min 31 s
Bit rate : 104 b/s
Count of elements : 659
Stream size : 39.3 KiB (0%)
Language : Hebrew
Default : No
Forced : No

Text #14
ID : 16
Format : UTF-8
Codec ID : S_TEXT/UTF8
Codec ID/Info : UTF-8 Plain Text
Duration : 51 min 31 s
Bit rate : 168 b/s
Count of elements : 659
Stream size : 63.4 KiB (0%)
Language : Hindi
Default : No
Forced : No

Text #15
ID : 17
Format : UTF-8
Codec ID : S_TEXT/UTF8
Codec ID/Info : UTF-8 Plain Text
Duration : 51 min 29 s
Bit rate : 71 b/s
Count of elements : 657
Stream size : 26.8 KiB (0%)
Language : Hungarian
Default : No
Forced : No

Text #16
ID : 18
Format : UTF-8
Codec ID : S_TEXT/UTF8
Codec ID/Info : UTF-8 Plain Text
Duration : 51 min 31 s
Bit rate : 63 b/s
Count of elements : 658
Stream size : 24.1 KiB (0%)
Language : Indonesian
Default : No
Forced : No

Text #17
ID : 19
Format : UTF-8
Codec ID : S_TEXT/UTF8
Codec ID/Info : UTF-8 Plain Text
Duration : 51 min 31 s
Bit rate : 64 b/s
Count of elements : 658
Stream size : 24.4 KiB (0%)
Language : Italian
Default : No
Forced : No

Text #18
ID : 20
Format : UTF-8
Codec ID : S_TEXT/UTF8
Codec ID/Info : UTF-8 Plain Text
Duration : 51 min 31 s
Bit rate : 49 b/s
Count of elements : 669
Stream size : 18.7 KiB (0%)
Language : Japanese
Default : No
Forced : No

Text #19
ID : 21
Format : UTF-8
Codec ID : S_TEXT/UTF8
Codec ID/Info : UTF-8 Plain Text
Duration : 51 min 31 s
Bit rate : 82 b/s
Count of elements : 659
Stream size : 31.0 KiB (0%)
Language : Korean
Default : No
Forced : No

Text #20
ID : 22
Format : UTF-8
Codec ID : S_TEXT/UTF8
Codec ID/Info : UTF-8 Plain Text
Duration : 51 min 31 s
Bit rate : 65 b/s
Count of elements : 658
Stream size : 24.7 KiB (0%)
Language : Malay
Default : No
Forced : No

Text #21
ID : 23
Format : UTF-8
Codec ID : S_TEXT/UTF8
Codec ID/Info : UTF-8 Plain Text
Duration : 51 min 31 s
Bit rate : 63 b/s
Count of elements : 657
Stream size : 24.0 KiB (0%)
Language : Norwegian Bokmal
Default : No
Forced : No

Text #22
ID : 24
Format : UTF-8
Codec ID : S_TEXT/UTF8
Codec ID/Info : UTF-8 Plain Text
Duration : 51 min 31 s
Bit rate : 63 b/s
Count of elements : 641
Stream size : 24.0 KiB (0%)
Language : Dutch
Default : No
Forced : No

Text #23
ID : 25
Format : UTF-8
Codec ID : S_TEXT/UTF8
Codec ID/Info : UTF-8 Plain Text
Duration : 51 min 31 s
Bit rate : 62 b/s
Count of elements : 658
Stream size : 23.6 KiB (0%)
Language : Polish
Default : No
Forced : No

Text #24
ID : 26
Format : UTF-8
Codec ID : S_TEXT/UTF8
Codec ID/Info : UTF-8 Plain Text
Duration : 51 min 31 s
Bit rate : 67 b/s
Count of elements : 658
Stream size : 25.6 KiB (0%)
Title : Brasil
Language : Portuguese
Default : No
Forced : No

Text #25
ID : 27
Format : UTF-8
Codec ID : S_TEXT/UTF8
Codec ID/Info : UTF-8 Plain Text
Duration : 51 min 31 s
Bit rate : 66 b/s
Count of elements : 655
Stream size : 25.1 KiB (0%)
Title : Portugal
Language : Portuguese
Default : No
Forced : No

Text #26
ID : 28
Format : UTF-8
Codec ID : S_TEXT/UTF8
Codec ID/Info : UTF-8 Plain Text
Duration : 51 min 31 s
Bit rate : 71 b/s
Count of elements : 657
Stream size : 27.0 KiB (0%)
Language : Romanian
Default : No
Forced : No

Text #27
ID : 29
Format : UTF-8
Codec ID : S_TEXT/UTF8
Codec ID/Info : UTF-8 Plain Text
Duration : 51 min 31 s
Bit rate : 110 b/s
Count of elements : 656
Stream size : 41.8 KiB (0%)
Language : Russian
Default : No
Forced : No

Text #28
ID : 30
Format : UTF-8
Codec ID : S_TEXT/UTF8
Codec ID/Info : UTF-8 Plain Text
Duration : 51 min 29 s
Bit rate : 61 b/s
Count of elements : 653
Stream size : 23.0 KiB (0%)
Language : Swedish
Default : No
Forced : No

Text #29
ID : 31
Format : UTF-8
Codec ID : S_TEXT/UTF8
Codec ID/Info : UTF-8 Plain Text
Duration : 51 min 31 s
Bit rate : 170 b/s
Count of elements : 659
Stream size : 64.4 KiB (0%)
Language : Tamil
Default : No
Forced : No

Text #30
ID : 32
Format : UTF-8
Codec ID : S_TEXT/UTF8
Codec ID/Info : UTF-8 Plain Text
Duration : 51 min 31 s
Bit rate : 173 b/s
Count of elements : 658
Stream size : 65.6 KiB (0%)
Language : Telugu
Default : No
Forced : No

Text #31
ID : 33
Format : UTF-8
Codec ID : S_TEXT/UTF8
Codec ID/Info : UTF-8 Plain Text
Duration : 51 min 31 s
Bit rate : 168 b/s
Count of elements : 659
Stream size : 63.5 KiB (0%)
Language : Thai
Default : No
Forced : No

Text #32
ID : 34
Format : UTF-8
Codec ID : S_TEXT/UTF8
Codec ID/Info : UTF-8 Plain Text
Duration : 51 min 31 s
Bit rate : 66 b/s
Count of elements : 655
Stream size : 25.2 KiB (0%)
Language : Turkish
Default : No
Forced : No

Text #33
ID : 35
Format : UTF-8
Codec ID : S_TEXT/UTF8
Codec ID/Info : UTF-8 Plain Text
Duration : 51 min 31 s
Bit rate : 65 b/s
Count of elements : 659
Stream size : 24.9 KiB (0%)
Title : 简体
Language : 中文
Default : No
Forced : No

Text #34
ID : 36
Format : UTF-8
Codec ID : S_TEXT/UTF8
Codec ID/Info : UTF-8 Plain Text
Duration : 51 min 31 s
Bit rate : 59 b/s
Count of elements : 659
Stream size : 22.4 KiB (0%)
Title : 繁體
Language : 中文
Default : No
Forced : No


Menu
00:00:00.000 : Amazon Original
00:00:04.000 : Scene 2
00:00:43.000 : Title Sequence
00:00:57.000 : Scene 4
00:02:50.000 : Scene 5
00:07:04.000 : Scene 6
00:11:39.000 : Scene 7
00:13:36.000 : Scene 8
00:16:44.000 : Scene 9
00:19:27.000 : Scene 10
00:20:31.000 : Scene 11
00:23:01.000 : Scene 12
00:26:22.000 : Scene 13
00:27:11.000 : Scene 14
00:28:54.000 : Scene 15
00:29:37.000 : Scene 16
00:31:56.000 : Scene 17
00:34:55.000 : Scene 18
00:38:42.000 : Scene 19
00:45:08.000 : Scene 20
00:48:11.000 : Scene 21
00:49:57.000 : End Credits


下载地址:

游客,如果您要查看本帖隐藏内容请回复

游客,如果您要查看本帖隐藏内容请回复

游客,如果您要查看本帖隐藏内容请回复





上一篇:爱芯 / Made for Love (2022) / 第二季8集全 / 4K高清版本下载
下一篇:1971:音乐改变世界的一年(简繁中字)/第一季8集全/4K高清下载
回复

使用道具 举报

57

主题

1469

帖子

4243

积分

4K家园VIP

Rank: 9Rank: 9Rank: 9

积分
4243
发表于 2022-5-24 10:50:24 来自手机 | 显示全部楼层
我也顶起出售广告位
回复 支持 反对

使用道具 举报

54

主题

1569

帖子

4481

积分

4K家园VIP

Rank: 9Rank: 9Rank: 9

积分
4481
发表于 2022-5-24 14:11:30 | 显示全部楼层
报告!别开枪,我就是路过来看看的。。。
回复 支持 反对

使用道具 举报

0

主题

15

帖子

54

积分

新手上路

Rank: 1

积分
54
发表于 2022-5-24 22:19:09 | 显示全部楼层
thanks!!!
回复

使用道具 举报

2

主题

1359

帖子

3913

积分

4K家园VIP

Rank: 9Rank: 9Rank: 9

积分
3913
发表于 2022-5-25 03:47:02 | 显示全部楼层
LZ敢整点更有创意的不?兄弟们等着围观捏~
回复 支持 反对

使用道具 举报

0

主题

275

帖子

1703

积分

4K家园VIP

Rank: 9Rank: 9Rank: 9

积分
1703
QQ
发表于 2022-5-25 14:18:44 | 显示全部楼层
让 江小白 来看看帖子里藏了啥好东西~~~
回复 支持 反对

使用道具 举报

2

主题

1317

帖子

3969

积分

4K家园VIP

Rank: 9Rank: 9Rank: 9

积分
3969
发表于 2022-5-26 06:32:18 | 显示全部楼层
前排顶,很好!
回复 支持 反对

使用道具 举报

0

主题

8625

帖子

2万

积分

4K家园VIP

Rank: 9Rank: 9Rank: 9

积分
20076
发表于 2022-5-26 08:07:00 | 显示全部楼层
太好啦&萬分感謝版主的無私發佈分享%
回复 支持 反对

使用道具 举报

2

主题

1637

帖子

4505

积分

4K家园VIP

Rank: 9Rank: 9Rank: 9

积分
4505
发表于 2022-5-26 19:06:12 | 显示全部楼层
呵呵。。。
回复 支持 反对

使用道具 举报

0

主题

1

帖子

6

积分

新手上路

Rank: 1

积分
6
发表于 2022-8-24 22:54:46 来自手机 | 显示全部楼层
谢谢楼主了
回复 支持 反对

使用道具 举报

您需要登录后才可以回帖 登录 | 立即注册

本版积分规则

精彩图文
Archiver|手机版|TAG|Sitemap|新帖|专题|联系我们:邮箱: 4kjia.com@gmail.com   

4k家园   ©2019