[国家地理] [4K国家地理] 意大利的传统习俗 (2020) [2160P/MKV/809MB]

[复制链接]

2846

主题

3211

帖子

2万

积分

超级版主

Rank: 8Rank: 8

积分
27159
 楼主| 发表于 2022-6-19 11:29:19 | 显示全部楼层 |阅读模式

励志意大利(809MB) (2020) WEBRip 2160p.mkv_20220524_115332.770.jpg 励志意大利(809MB) (2020) WEBRip 2160p.mkv_20220524_115350.474.jpg 励志意大利(809MB) (2020) WEBRip 2160p.mkv_20220524_115406.241.jpg 励志意大利(809MB) (2020) WEBRip 2160p.mkv_20220524_115413.539.jpg 励志意大利(809MB) (2020) WEBRip 2160p.mkv_20220524_115423.355.jpg 励志意大利(809MB) (2020) WEBRip 2160p.mkv_20220524_115439.698.jpg 励志意大利(809MB) (2020) WEBRip 2160p.mkv_20220524_115447.074.jpg 励志意大利(809MB) (2020) WEBRip 2160p.mkv_20220524_115518.714.jpg

电影信息
标题:意大利的传统习俗
上映年份: 2020
国家:意大利
时长: 00:04: 59
类型: 精彩纷呈导演:jansoli


关于电影:

         让每个人都爱上意大利的各种传统习俗、美丽的文化和艺术,现在是意大利人的力量和骄傲。


国家:意大利
时长: 00:04: 59

Video
ID                             : 1
Format                         : AVC
Format/Info                    : Advanced Video Codec
Format profile                 : High@L5.2
Format settings                : CABAC / 5 Ref Frames
Format settings, CABAC         : Yes
Format settings, Reference fra : 5 frames
Codec ID                       : V_MPEG4/ISO/AVC
Duration                       : 4 min 59 s
Bit rate                       : 22.6 Mb/s
Width                          : 3 840 pixels
Height                         : 2 160 pixels
Display aspect ratio           : 16:9
Frame rate mode                : Constant
Frame rate                     : 30.000 FPS
Color space                    : YUV
Chroma subsampling             : 4:2:0
Bit depth                      : 8 bits
Scan type                      : Progressive
Bits/(Pixel*Frame)             : 0.091
Stream size                    : 805 MiB (99%)
Writing library                : x264 core 159 r10 1771b55
Encoding settings              : cabac=1 / ref=5 / deblock=1:0:0 / analyse=0x3:0x113 / me=hex / subme=8 / psy=1 / psy_rd=1.00:0.00 / mixed_ref=1 / me_range=16 / chroma_me=1 / trellis=2 / 8x8dct=1 / cqm=0 / deadzone=21,11 / fast_pskip=1 / chroma_qp_offset=-2 / threads=48 / lookahead_threads=8 / sliced_threads=0 / nr=0 / decimate=1 / interlaced=0 / bluray_compat=0 / stitchable=1 / constrained_intra=0 / bframes=3 / b_pyramid=2 / b_adapt=2 / b_bias=0 / direct=3 / weightb=1 / open_gop=0 / weightp=2 / keyint=infinite / keyint_min=30 / scenecut=40 / intra_refresh=0 / rc_lookahead=50 / rc=crf / mbtree=1 / crf=20.0 / qcomp=0.60 / qpmin=5 / qpmax=69 / qpstep=4 / vbv_maxrate=24200 / vbv_bufsize=66000 / crf_max=0.0 / nal_hrd=none / filler=0 / ip_ratio=1.40 / aq=1:1.00
Default                        : Yes
Forced                         : No
Color range                    : Limited
Color primaries                : BT.709
Transfer characteristics       : BT.709
Matrix coefficients            : BT.709

Audio
ID                             : 2
Format                         : AAC LC
Format/Info                    : Advanced Audio Codec Low Complexity
Codec ID                       : A_AAC-2
Duration                       : 4 min 59 s
Bit rate                       : 125 kb/s
Channel(s)                     : 2 channels
Channel layout                 : L R
Sampling rate                  : 48.0 kHz
Frame rate                     : 46.875 FPS (1024 SPF)
Compression mode               : Lossy
Delay relative to video        : -66 ms
Stream size                    : 4.47 MiB (0%)
Default                        : Yes
Forced                         : No
下载地址:

****此区域为收费内容****    需支付 15 金币后可查看立即购买






上一篇:[4K国家地理] 柏林灯光节 (2021) [2160P/MKV/542MB]
下一篇:[4K国家地理] 伦敦岁月之城 (2020) [2160P/MKV/560MB]
回复

使用道具 举报

1

主题

1393

帖子

4021

积分

4K家园VIP

Rank: 9Rank: 9Rank: 9

积分
4021
发表于 2022-6-19 11:29:23 | 显示全部楼层
鄙视楼下的顶帖没我快,哈哈
回复 支持 反对

使用道具 举报

2

主题

1431

帖子

4266

积分

4K家园VIP

Rank: 9Rank: 9Rank: 9

积分
4266
发表于 2022-6-19 13:37:58 | 显示全部楼层
看起来不错
回复 支持 反对

使用道具 举报

0

主题

1337

帖子

4039

积分

4K家园VIP

Rank: 9Rank: 9Rank: 9

积分
4039
发表于 2022-6-19 15:47:09 | 显示全部楼层
这么强,支持楼主,佩服
回复 支持 反对

使用道具 举报

34

主题

1559

帖子

4387

积分

4K家园VIP

Rank: 9Rank: 9Rank: 9

积分
4387
发表于 2022-6-19 17:35:16 | 显示全部楼层
感谢推荐,确实不错
回复 支持 反对

使用道具 举报

0

主题

103

帖子

615

积分

新手上路

Rank: 1

积分
615
发表于 2022-6-20 08:33:17 | 显示全部楼层
看起来不错
回复 支持 反对

使用道具 举报

4

主题

24

帖子

948

积分

4K家园VIP

Rank: 9Rank: 9Rank: 9

积分
948
发表于 2022-6-20 09:11:07 | 显示全部楼层
这片名,谁起的?
回复 支持 反对

使用道具 举报

3

主题

1481

帖子

4297

积分

4K家园VIP

Rank: 9Rank: 9Rank: 9

积分
4297
发表于 2022-6-20 12:07:26 来自手机 | 显示全部楼层
没人回帖。。。我来个吧
回复 支持 反对

使用道具 举报

0

主题

8625

帖子

2万

积分

4K家园VIP

Rank: 9Rank: 9Rank: 9

积分
20076
发表于 2022-7-11 17:27:22 | 显示全部楼层
太好啦&萬分感謝版主的無私發佈分享%
回复 支持 反对

使用道具 举报

0

主题

53

帖子

1896

积分

注册会员

Rank: 2

积分
1896
发表于 2022-7-11 23:17:30 | 显示全部楼层
太好啦&萬分感謝版主的無私發佈分享%
回复 支持 反对

使用道具 举报

您需要登录后才可以回帖 登录 | 立即注册

本版积分规则

精彩图文
Archiver|手机版|TAG|Sitemap|新帖|专题|联系我们:邮箱: 4kjia.com@gmail.com   

4k家园   ©2019