[国家地理] [4K国家地理] 俄罗斯-雅库特 (2021) [2160P/MKV/482MB]

[复制链接]

2825

主题

3188

帖子

2万

积分

超级版主

Rank: 8Rank: 8

积分
26891
 楼主| 发表于 2022-7-29 12:37:30 | 显示全部楼层 |阅读模式
ЯКУТИЯ.mkv_20220524_121625.870.jpg ЯКУТИЯ.mkv_20220524_121635.257.jpg ЯКУТИЯ.mkv_20220524_121644.081.jpg ЯКУТИЯ.mkv_20220524_121657.154.jpg ЯКУТИЯ.mkv_20220524_121706.537.jpg ЯКУТИЯ.mkv_20220524_121715.394.jpg


关于信息
标题:俄罗斯-雅库特
发行年份: 2021
国家:俄罗斯
时间: 00:04:24
类型: 物种
导演:丹尼斯·波斯特诺夫

关于电影:

       我不是专业的摄像师,我会尽力拍摄和编辑。

Video
ID                             : 1
Format                         : VP9
Codec ID                       : V_VP9
Duration                       : 4 min 24 s
Bit rate                       : 15.1 Mb/s
Width                          : 3 840 pixels
Height                         : 2 160 pixels
Display aspect ratio           : 16:9
Frame rate mode                : Constant
Frame rate                     : 25.000 FPS
Color space                    : YUV
Bits/(Pixel*Frame)             : 0.073
Stream size                    : 478 MiB (99%)
Default                        : Yes
Forced                         : No
Color range                    : Limited
Color primaries                : BT.709
Transfer characteristics       : BT.709
Matrix coefficients            : BT.709

Audio
ID                             : 2
Format                         : Opus
Codec ID                       : A_OPUS
Duration                       : 4 min 24 s
Bit rate                       : 131 kb/s
Channel(s)                     : 2 channels
Channel layout                 : L R
Sampling rate                  : 48.0 kHz
Frame rate                     : 50.000 FPS (960 SPF)
Bit depth                      : 32 bits
Compression mode               : Lossy
Stream size                    : 4.15 MiB (1%)
Default                        : Yes
Forced                         : No
下载地址:

****此区域为收费内容****    需支付 15 金币后可查看立即购买






上一篇:[4K国家地理] 伦敦岁月之城 (2020) [2160P/MKV/560MB]
下一篇:[大尺度欧美 4K视频] 2022 罗莎莉亚 4K[2160P/MOV/4.82GB]
回复

使用道具 举报

6

主题

1441

帖子

4199

积分

中级会员

Rank: 4

积分
4199
发表于 2022-7-29 12:37:34 | 显示全部楼层
支持下楼主,顶一个
回复 支持 反对

使用道具 举报

0

主题

8337

帖子

1万

积分

4K家园VIP

Rank: 9Rank: 9Rank: 9

积分
19388
发表于 2022-7-29 13:02:21 | 显示全部楼层
俄羅斯★雅庫特4k
回复 支持 反对

使用道具 举报

0

主题

10

帖子

27

积分

新手上路

Rank: 1

积分
27
发表于 2022-7-30 08:23:12 | 显示全部楼层
6666666666666666666666
回复 支持 反对

使用道具 举报

4

主题

1319

帖子

3977

积分

4K家园VIP

Rank: 9Rank: 9Rank: 9

积分
3977
发表于 2022-8-3 06:47:44 | 显示全部楼层
very good
回复 支持 反对

使用道具 举报

40

主题

1554

帖子

4452

积分

4K家园VIP

Rank: 9Rank: 9Rank: 9

积分
4452
发表于 2022-8-3 22:03:38 | 显示全部楼层
这个资源我记得是一套的,楼主还有没有
回复 支持 反对

使用道具 举报

0

主题

6

帖子

31

积分

新手上路

Rank: 1

积分
31
发表于 2022-8-4 00:50:17 | 显示全部楼层
中的精华所在如图九虽然与同事入耳式的膛说
回复 支持 反对

使用道具 举报

50

主题

1495

帖子

4257

积分

4K家园VIP

Rank: 9Rank: 9Rank: 9

积分
4257
发表于 2022-8-4 19:37:59 | 显示全部楼层
垃圾
回复 支持 反对

使用道具 举报

3

主题

1749

帖子

4787

积分

4K家园VIP

Rank: 9Rank: 9Rank: 9

积分
4787
发表于 2022-8-4 23:39:26 | 显示全部楼层
怎么这么大,希望我电视能看啊
回复 支持 反对

使用道具 举报

您需要登录后才可以回帖 登录 | 立即注册

本版积分规则

精彩图文
Archiver|手机版|TAG|Sitemap|新帖|专题|联系我们:邮箱: 4kjia.com@gmail.com   

4k家园   ©2019