[现场 MV] 比莉·艾利斯-17号码头的屋顶(2019年)[2160P/MKV/1.16GB]

[复制链接]

2846

主题

3211

帖子

2万

积分

超级版主

Rank: 8Rank: 8

积分
27159
 楼主| 发表于 2022-5-26 11:18:18 | 显示全部楼层 |阅读模式
本帖最后由 叽里呱啦 于 2022-5-24 12:50 编辑

Billie Eilish - The Rooftop at Pier 17 (2019).mkv_20220524_124012.660.jpg Billie Eilish - The Rooftop at Pier 17 (2019).mkv_20220524_124110.873.jpg Billie Eilish - The Rooftop at Pier 17 (2019).mkv_20220524_124119.674.jpg Billie Eilish - The Rooftop at Pier 17 (2019).mkv_20220524_124139.625.jpg Billie Eilish - The Rooftop at Pier 17 (2019).mkv_20220524_124153.673.jpg Billie Eilish - The Rooftop at Pier 17 (2019).mkv_20220524_124219.465.jpg

曲目列表

希望你是同性恋
我爱你

Video
ID                             : 1
Format                         : HEVC
Format/Info                    : High Efficiency Video Coding
Format profile                 : Main 10@L5@High
HDR format                     : SMPTE ST 2086, HDR10 compatible
Codec ID                       : V_MPEGH/ISO/HEVC
Duration                       : 6 min 5 s
Bit rate                       : 24.1 Mb/s
Width                          : 3 840 pixels
Height                         : 2 160 pixels
Display aspect ratio           : 16:9
Frame rate mode                : Variable
Frame rate                     : 553.090 FPS
Color space                    : YUV
Chroma subsampling             : 4:2:0 (Type 2)
Bit depth                      : 10 bits
Bits/(Pixel*Frame)             : 0.005
Stream size                    : 23.7 GiB
Default                        : Yes
Forced                         : No
Color range                    : Limited
Color primaries                : BT.2020
Transfer characteristics       : PQ
Matrix coefficients            : BT.2020 non-constant
Mastering display color primar : Display P3
Mastering display luminance    : min: 0.0050 cd/m2, max: 1000 cd/m2
Maximum Content Light Level    : 1839 cd/m2
Maximum Frame-Average Light Le : 766 cd/m2

Audio
ID                             : 2
Format                         : E-AC-3 JOC
Format/Info                    : Enhanced AC-3 with Joint Object Coding
Commercial name                : Dolby Digital Plus with Dolby Atmos
Codec ID                       : A_EAC3
Duration                       : 6 min 5 s
Bit rate mode                  : Constant
Bit rate                       : 768 kb/s
Channel(s)                     : 6 channels
Channel layout                 : L R C LFE Ls Rs
Sampling rate                  : 48.0 kHz
Frame rate                     : 31.250 FPS (1536 SPF)
Bit depth                      : 32 bits
Compression mode               : Lossy
Delay relative to video        : 22 ms
Stream size                    : 772 MiB (65%)
Title                          : English
Language                       : English
Service kind                   : Complete Main
Default                        : Yes
Forced                         : No
Complexity index               : 16
Number of dynamic objects      : 15
Bed channel count              : 1 channel
Bed channel configuration      : LFE

Text #1
ID                             : 3
Format                         : UTF-8
Codec ID                       : S_TEXT/UTF8
Codec ID/Info                  : UTF-8 Plain Text
Duration                       : 5 min 35 s
Bit rate                       : 66 b/s
Count of elements              : 2164
Stream size                    : 68.0 KiB (0%)
Title                          : Hungarian
Language                       : Hungarian
Default                        : Yes
Forced                         : No

Text #2
ID                             : 4
Format                         : UTF-8
Codec ID                       : S_TEXT/UTF8
Codec ID/Info                  : UTF-8 Plain Text
Duration                       : 5 min 35 s
Bit rate                       : 58 b/s
Count of elements              : 1788
Stream size                    : 60.3 KiB (0%)
Title                          : Dutch
Language                       : Dutch
Default                        : No
Forced                         : No

Text #3
ID                             : 5
Format                         : UTF-8
Codec ID                       : S_TEXT/UTF8
Codec ID/Info                  : UTF-8 Plain Text
Duration                       : 5 min 35 s
Bit rate                       : 101 b/s
Count of elements              : 2181
Stream size                    : 104 KiB (0%)
Title                          : Ukrainian
Language                       : Ukrainian
Default                        : No
Forced                         : No

Text #4
ID                             : 6
Format                         : UTF-8
Codec ID                       : S_TEXT/UTF8
Codec ID/Info                  : UTF-8 Plain Text
Duration                       : 6 min 1 s
Bit rate                       : 87 b/s
Count of elements              : 2400
Stream size                    : 89.5 KiB (0%)
Title                          : English [SDH]
Language                       : English
Default                        : No
Forced                         : No

Text #5
ID                             : 7
Format                         : UTF-8
Codec ID                       : S_TEXT/UTF8
Codec ID/Info                  : UTF-8 Plain Text
Duration                       : 5 min 35 s
Bit rate                       : 228 b/s
Count of elements              : 2189
Stream size                    : 235 KiB (0%)
Title                          : Tamil
Language                       : Tamil
Default                        : No
Forced                         : No

Text #6
ID                             : 8
Format                         : UTF-8
Codec ID                       : S_TEXT/UTF8
Codec ID/Info                  : UTF-8 Plain Text
Duration                       : 5 min 35 s
Bit rate                       : 69 b/s
Count of elements              : 2162
Stream size                    : 70.9 KiB (0%)
Title                          : Turkish
Language                       : Turkish
Default                        : No
Forced                         : No

Text #7
ID                             : 9
Format                         : UTF-8
Codec ID                       : S_TEXT/UTF8
Codec ID/Info                  : UTF-8 Plain Text
Duration                       : 5 min 35 s
Bit rate                       : 59 b/s
Count of elements              : 2171
Stream size                    : 60.6 KiB (0%)
Title                          : Brazilian Portuguese
Language                       : Portuguese
Default                        : No
Forced                         : No

Text #8
ID                             : 10
Format                         : UTF-8
Codec ID                       : S_TEXT/UTF8
Codec ID/Info                  : UTF-8 Plain Text
Duration                       : 5 min 35 s
Bit rate                       : 68 b/s
Count of elements              : 2045
Stream size                    : 70.1 KiB (0%)
Title                          : European Spanish
Language                       : Spanish
Default                        : No
Forced                         : No

Text #9
ID                             : 11
Format                         : UTF-8
Codec ID                       : S_TEXT/UTF8
Codec ID/Info                  : UTF-8 Plain Text
Duration                       : 5 min 35 s
Bit rate                       : 85 b/s
Count of elements              : 2173
Stream size                    : 87.7 KiB (0%)
Title                          : Vietnamese
Language                       : Vietnamese
Default                        : No
Forced                         : No

Text #10
ID                             : 12
Format                         : UTF-8
Codec ID                       : S_TEXT/UTF8
Codec ID/Info                  : UTF-8 Plain Text
Duration                       : 5 min 35 s
Bit rate                       : 107 b/s
Count of elements              : 2167
Stream size                    : 110 KiB (0%)
Title                          : Arabic
Language                       : Arabic
Default                        : No
Forced                         : No

Text #11
ID                             : 13
Format                         : UTF-8
Codec ID                       : S_TEXT/UTF8
Codec ID/Info                  : UTF-8 Plain Text
Duration                       : 5 min 34 s
Bit rate                       : 58 b/s
Count of elements              : 2110
Stream size                    : 59.5 KiB (0%)
Title                          : Japanese
Language                       : Japanese
Default                        : No
Forced                         : No

Text #12
ID                             : 14
Format                         : UTF-8
Codec ID                       : S_TEXT/UTF8
Codec ID/Info                  : UTF-8 Plain Text
Duration                       : 5 min 35 s
Bit rate                       : 73 b/s
Count of elements              : 2163
Stream size                    : 75.7 KiB (0%)
Title                          : Malay
Language                       : Malay
Default                        : No
Forced                         : No

Text #13
ID                             : 15
Format                         : UTF-8
Codec ID                       : S_TEXT/UTF8
Codec ID/Info                  : UTF-8 Plain Text
Duration                       : 5 min 35 s
Bit rate                       : 187 b/s
Count of elements              : 2191
Stream size                    : 192 KiB (0%)
Title                          : Hindi
Language                       : Hindi
Default                        : No
Forced                         : No

Text #14
ID                             : 16
Format                         : UTF-8
Codec ID                       : S_TEXT/UTF8
Codec ID/Info                  : UTF-8 Plain Text
Duration                       : 5 min 35 s
Bit rate                       : 68 b/s
Count of elements              : 2141
Stream size                    : 70.6 KiB (0%)
Title                          : French
Language                       : French
Default                        : No
Forced                         : No

Text #15
ID                             : 17
Format                         : UTF-8
Codec ID                       : S_TEXT/UTF8
Codec ID/Info                  : UTF-8 Plain Text
Duration                       : 5 min 35 s
Bit rate                       : 96 b/s
Count of elements              : 2189
Stream size                    : 98.9 KiB (0%)
Title                          : Hebrew
Language                       : Hebrew
Default                        : No
Forced                         : No

Text #16
ID                             : 18
Format                         : UTF-8
Codec ID                       : S_TEXT/UTF8
Codec ID/Info                  : UTF-8 Plain Text
Duration                       : 5 min 35 s
Bit rate                       : 108 b/s
Count of elements              : 2139
Stream size                    : 111 KiB (0%)
Title                          : Greek
Language                       : Greek
Default                        : No
Forced                         : No

Text #17
ID                             : 19
Format                         : UTF-8
Codec ID                       : S_TEXT/UTF8
Codec ID/Info                  : UTF-8 Plain Text
Bit rate                       : 3 b/s
Count of elements              : 118
Stream size                    : 3.63 KiB (0%)
Title                          : English [Forced]
Language                       : English
Default                        : No
Forced                         : Yes

Text #18
ID                             : 20
Format                         : UTF-8
Codec ID                       : S_TEXT/UTF8
Codec ID/Info                  : UTF-8 Plain Text
Duration                       : 5 min 35 s
Bit rate                       : 66 b/s
Count of elements              : 2190
Stream size                    : 68.2 KiB (0%)
Title                          : Cantonese
Language                       : Chinese
Default                        : No
Forced                         : No

Text #19
ID                             : 21
Format                         : UTF-8
Codec ID                       : S_TEXT/UTF8
Codec ID/Info                  : UTF-8 Plain Text
Duration                       : 5 min 35 s
Bit rate                       : 68 b/s
Count of elements              : 2146
Stream size                    : 70.1 KiB (0%)
Title                          : Italian
Language                       : Italian
Default                        : No
Forced                         : No

Text #20
ID                             : 22
Format                         : UTF-8
Codec ID                       : S_TEXT/UTF8
Codec ID/Info                  : UTF-8 Plain Text
Duration                       : 5 min 35 s
Bit rate                       : 196 b/s
Count of elements              : 2187
Stream size                    : 201 KiB (0%)
Title                          : Telugu
Language                       : Telugu
Default                        : No
Forced                         : No

Text #21
ID                             : 23
Format                         : UTF-8
Codec ID                       : S_TEXT/UTF8
Codec ID/Info                  : UTF-8 Plain Text
Duration                       : 5 min 35 s
Bit rate                       : 68 b/s
Count of elements              : 2141
Stream size                    : 70.6 KiB (0%)
Title                          : French Canadian
Language                       : French
Default                        : No
Forced                         : No

Text #22
ID                             : 24
Format                         : UTF-8
Codec ID                       : S_TEXT/UTF8
Codec ID/Info                  : UTF-8 Plain Text
Duration                       : 5 min 35 s
Bit rate                       : 116 b/s
Count of elements              : 2191
Stream size                    : 119 KiB (0%)
Title                          : Russian
Language                       : Russian
Default                        : No
Forced                         : No

Text #23
ID                             : 25
Format                         : UTF-8
Codec ID                       : S_TEXT/UTF8
Codec ID/Info                  : UTF-8 Plain Text
Duration                       : 5 min 35 s
Bit rate                       : 65 b/s
Count of elements              : 2161
Stream size                    : 66.9 KiB (0%)
Title                          : Finnish
Language                       : Finnish
Default                        : No
Forced                         : No

Text #24
ID                             : 26
Format                         : UTF-8
Codec ID                       : S_TEXT/UTF8
Codec ID/Info                  : UTF-8 Plain Text
Duration                       : 5 min 35 s
Bit rate                       : 61 b/s
Count of elements              : 2113
Stream size                    : 62.9 KiB (0%)
Title                          : Danish
Language                       : Danish
Default                        : No
Forced                         : No

Text #25
ID                             : 27
Format                         : UTF-8
Codec ID                       : S_TEXT/UTF8
Codec ID/Info                  : UTF-8 Plain Text
Duration                       : 5 min 35 s
Bit rate                       : 105 b/s
Count of elements              : 2123
Stream size                    : 109 KiB (0%)
Title                          : Bulgarian
Language                       : Bulgarian
Default                        : No
Forced                         : No

Text #26
ID                             : 28
Format                         : UTF-8
Codec ID                       : S_TEXT/UTF8
Codec ID/Info                  : UTF-8 Plain Text
Duration                       : 5 min 35 s
Bit rate                       : 143 b/s
Count of elements              : 2187
Stream size                    : 147 KiB (0%)
Title                          : Thai
Language                       : Thai
Default                        : No
Forced                         : No

Text #27
ID                             : 29
Format                         : UTF-8
Codec ID                       : S_TEXT/UTF8
Codec ID/Info                  : UTF-8 Plain Text
Duration                       : 5 min 35 s
Bit rate                       : 68 b/s
Count of elements              : 2055
Stream size                    : 70.0 KiB (0%)
Title                          : German
Language                       : German
Default                        : No
Forced                         : No

Text #28
ID                             : 30
Format                         : UTF-8
Codec ID                       : S_TEXT/UTF8
Codec ID/Info                  : UTF-8 Plain Text
Duration                       : 5 min 35 s
Bit rate                       : 67 b/s
Count of elements              : 2173
Stream size                    : 68.9 KiB (0%)
Title                          : Swedish
Language                       : Swedish
Default                        : No
Forced                         : No

Text #29
ID                             : 31
Format                         : UTF-8
Codec ID                       : S_TEXT/UTF8
Codec ID/Info                  : UTF-8 Plain Text
Duration                       : 5 min 35 s
Bit rate                       : 65 b/s
Count of elements              : 2098
Stream size                    : 67.3 KiB (0%)
Title                          : Spanish
Language                       : Spanish
Default                        : No
Forced                         : No

Text #30
ID                             : 32
Format                         : UTF-8
Codec ID                       : S_TEXT/UTF8
Codec ID/Info                  : UTF-8 Plain Text
Duration                       : 5 min 35 s
Bit rate                       : 59 b/s
Count of elements              : 2111
Stream size                    : 61.0 KiB (0%)
Title                          : Slovenian
Language                       : Slovenian
Default                        : No
Forced                         : No

Text #31
ID                             : 33
Format                         : UTF-8
Codec ID                       : S_TEXT/UTF8
Codec ID/Info                  : UTF-8 Plain Text
Duration                       : 5 min 35 s
Bit rate                       : 64 b/s
Count of elements              : 2169
Stream size                    : 66.3 KiB (0%)
Title                          : Polish
Language                       : Polish
Default                        : No
Forced                         : No

Text #32
ID                             : 34
Format                         : UTF-8
Codec ID                       : S_TEXT/UTF8
Codec ID/Info                  : UTF-8 Plain Text
Duration                       : 5 min 35 s
Bit rate                       : 63 b/s
Count of elements              : 2192
Stream size                    : 65.4 KiB (0%)
Title                          : Traditional
Language                       : Chinese
Default                        : No
Forced                         : No

Text #33
ID                             : 35
Format                         : UTF-8
Codec ID                       : S_TEXT/UTF8
Codec ID/Info                  : UTF-8 Plain Text
Duration                       : 5 min 35 s
Bit rate                       : 72 b/s
Count of elements              : 2174
Stream size                    : 74.2 KiB (0%)
Title                          : Latvian
Language                       : Latvian
Default                        : No
Forced                         : No

Text #34
ID                             : 36
Format                         : UTF-8
Codec ID                       : S_TEXT/UTF8
Codec ID/Info                  : UTF-8 Plain Text
Duration                       : 5 min 35 s
Bit rate                       : 72 b/s
Count of elements              : 2192
Stream size                    : 74.4 KiB (0%)
Title                          : Korean
Language                       : Korean
Default                        : No
Forced                         : No

Text #35
ID                             : 37
Format                         : UTF-8
Codec ID                       : S_TEXT/UTF8
Codec ID/Info                  : UTF-8 Plain Text
Duration                       : 5 min 35 s
Bit rate                       : 67 b/s
Count of elements              : 2145
Stream size                    : 69.1 KiB (0%)
Title                          : Slovak
Language                       : Slovak
Default                        : No
Forced                         : No

Text #36
ID                             : 38
Format                         : UTF-8
Codec ID                       : S_TEXT/UTF8
Codec ID/Info                  : UTF-8 Plain Text
Duration                       : 5 min 35 s
Bit rate                       : 67 b/s
Count of elements              : 2132
Stream size                    : 69.2 KiB (0%)
Title                          : Portuguese
Language                       : Portuguese
Default                        : No
Forced                         : No

Text #37
ID                             : 39
Format                         : UTF-8
Codec ID                       : S_TEXT/UTF8
Codec ID/Info                  : UTF-8 Plain Text
Duration                       : 5 min 35 s
Bit rate                       : 63 b/s
Count of elements              : 2030
Stream size                    : 65.1 KiB (0%)
Title                          : Estonian
Language                       : Estonian
Default                        : No
Forced                         : No

Text #38
ID                             : 40
Format                         : UTF-8
Codec ID                       : S_TEXT/UTF8
Codec ID/Info                  : UTF-8 Plain Text
Duration                       : 5 min 35 s
Bit rate                       : 60 b/s
Count of elements              : 2186
Stream size                    : 62.4 KiB (0%)
Title                          : 中文(简体)
Language                       : 中文
Default                        : No
Forced                         : No


Text #39
ID                             : 41
Format                         : UTF-8
Codec ID                       : S_TEXT/UTF8
Codec ID/Info                  : UTF-8 Plain Text
Duration                       : 5 min 35 s
Bit rate                       : 72 b/s
Count of elements              : 2141
Stream size                    : 74.0 KiB (0%)
Title                          : English
Language                       : English
Default                        : No
Forced                         : No

Text #40
ID                             : 42
Format                         : UTF-8
Codec ID                       : S_TEXT/UTF8
Codec ID/Info                  : UTF-8 Plain Text
Duration                       : 5 min 35 s
Bit rate                       : 74 b/s
Count of elements              : 2171
Stream size                    : 76.0 KiB (0%)
Title                          : Indonesian
Language                       : Indonesian
Default                        : No
Forced                         : No

Text #41
ID                             : 43
Format                         : UTF-8
Codec ID                       : S_TEXT/UTF8
Codec ID/Info                  : UTF-8 Plain Text
Duration                       : 5 min 35 s
Bit rate                       : 67 b/s
Count of elements              : 1894
Stream size                    : 69.3 KiB (0%)
Title                          : Norwegian
Language                       : Norwegian
Default                        : No
Forced                         : No

Text #42
ID                             : 44
Format                         : UTF-8
Codec ID                       : S_TEXT/UTF8
Codec ID/Info                  : UTF-8 Plain Text
Duration                       : 5 min 35 s
Bit rate                       : 63 b/s
Count of elements              : 2070
Stream size                    : 65.6 KiB (0%)
Title                          : Czech
Language                       : Czech
Default                        : No
Forced                         : No

Text #43
ID                             : 45
Format                         : UTF-8
Codec ID                       : S_TEXT/UTF8
Codec ID/Info                  : UTF-8 Plain Text
Duration                       : 5 min 35 s
Bit rate                       : 68 b/s
Count of elements              : 2172
Stream size                    : 70.3 KiB (0%)
Title                          : Lithuanian
Language                       : Lithuanian
Default                        : No
Forced                         : No

下载地址:(内嵌中字版本)

****此区域为收费内容****    需支付 15 金币后可查看立即购买





上一篇:[4K欧美 MV]卡迪B&梅根-Thee Stallion 4K [2160P/MKV/489MB]
下一篇:[4K MV] 2022 Seventeen - Hot - 4k [2160P/MP4/2.26GB]
回复

使用道具 举报

1

主题

1688

帖子

4720

积分

4K家园VIP

Rank: 9Rank: 9Rank: 9

积分
4720
发表于 2022-5-26 11:18:27 来自手机 | 显示全部楼层
是爷们的娘们的都帮顶!大力支持
回复 支持 反对

使用道具 举报

0

主题

8625

帖子

2万

积分

4K家园VIP

Rank: 9Rank: 9Rank: 9

积分
20076
发表于 2022-5-26 11:43:56 | 显示全部楼层
太好啦&萬分感謝版主的無私發佈分享%
回复 支持 反对

使用道具 举报

49

主题

1554

帖子

4494

积分

4K家园VIP

Rank: 9Rank: 9Rank: 9

积分
4494
发表于 2022-5-26 15:52:20 | 显示全部楼层
多谢楼主分享
回复 支持 反对

使用道具 举报

62

主题

1511

帖子

4413

积分

4K家园VIP

Rank: 9Rank: 9Rank: 9

积分
4413
发表于 2022-5-26 18:05:38 来自手机 | 显示全部楼层
楼下的接上
回复 支持 反对

使用道具 举报

41

主题

1500

帖子

4300

积分

4K家园VIP

Rank: 9Rank: 9Rank: 9

积分
4300
发表于 2022-5-26 23:51:56 | 显示全部楼层
啊啊啊啊啊啊啊啊啊啊啊
回复 支持 反对

使用道具 举报

2

主题

1181

帖子

3565

积分

4K家园VIP

Rank: 9Rank: 9Rank: 9

积分
3565
发表于 2022-5-27 00:43:54 | 显示全部楼层
啊啊啊啊啊啊啊啊啊啊啊
回复 支持 反对

使用道具 举报

0

主题

58

帖子

1082

积分

注册会员

Rank: 2

积分
1082
发表于 2022-5-28 10:14:16 | 显示全部楼层
谢谢谢谢谢谢谢
回复 支持 反对

使用道具 举报

0

主题

6

帖子

150

积分

新手上路

Rank: 1

积分
150
发表于 2022-7-19 10:07:43 | 显示全部楼层

PPC - Контекстная реклама настройка и ведение


Link Building, прогоны дроп доменов с помощью X-rumer и GSA (Search Engine Ranker) вы сможете заказать на нашем канале. Мы давно занимаемся продвижением сайтов с помощью ссылок, и имеем колоссальный опыт в построении различных ссылочных пирамид. Множество тактик от специалистов вы найдете в группе телеграм @pokras777

либо в скайп логин pokras7777

RHzs43hgndIpuiSy
回复 支持 反对

使用道具 举报

0

主题

1

帖子

6

积分

新手上路

Rank: 1

积分
6
发表于 2022-7-20 07:06:56 | 显示全部楼层

best free webcam sites

best free webcam sites
回复 支持 反对

使用道具 举报

您需要登录后才可以回帖 登录 | 立即注册

本版积分规则

精彩图文
Archiver|手机版|TAG|Sitemap|新帖|专题|联系我们:邮箱: 4kjia.com@gmail.com   

4k家园   ©2019