[4K电影] 驯妻记 / McLintock! (1963) 4K高清版本下载

[复制链接]

主题

帖子

0

积分

超级版主

Rank: 8Rank: 8

积分
0
 楼主| 发表于 2022-5-25 21:08:51 | 显示全部楼层 |阅读模式
QQ图片20220525210039_副本.png

◎译  名 驯妻记 / 铁汉雌虎(港)
◎片  名 McLintock!
◎年  代 1963
◎产  地 美国
◎类  别 喜剧 / 爱情 / 西部
◎语  言 英语
◎上映日期 1963-11-13
◎IMDb评分  7.1/10 from 14838 users
◎IMDb链接  https://www.imdb.com/title/tt0057298/
◎豆瓣评分 6.8/10 from 85 users
◎豆瓣链接 https://movie.douban.com/subject/1296715/
◎片  长 127 分钟
◎导  演 安德鲁·麦克拉格伦 Andrew V. McLaglen
◎编  剧 詹姆斯·爱德华·格兰特 James Edward Grant
◎主  演 约翰·韦恩 John Wayne
       玛琳·奥哈拉 Maureen O'Hara
       罗伯特·洛瓦里 Robert Lowery
       迈克尔·佩特 Michael Pate
       鲍勃·斯蒂尔 Bob Steele
       查克·罗伯森 Chuck Roberson
       迪恩史密斯 Dean Smith
       Jerry Van Dyke
       汉克·沃登 Hank Worden
       Olaf Wieghorst
       爱莎·韦恩 Aissa Wayne
       Ralph Volkie
       帕特里克·韦恩 Patrick Wayne
       佩里·洛佩兹 Perry Lopez
       克利夫·莱昂斯 Cliff Lyons
       Duncan Inches Duncan Inches
       齐尔·威尔斯 Chill Wills
       埃德加·巴詹南 Edgar Buchanan
       哈尔·尼达姆 Hal Needham
       玛丽·布兰查德 Mari Blanchard
       里奥·戈登 Leo Gordon
       斯蒂芬妮·鲍尔斯 Stefanie Powers
       伊冯娜·德·卡洛 Yvonne De Carlo
       斯特罗瑟·马丁 Strother Martin
       丹尼·鲍沙其 Danny Borzage
       爱德华·福克纳 Edward Faulkner
       大约翰·汉密尔顿 Big John Hamilton
       H.W. Gim H.W. Gim
       杰克·克鲁申 Jack Kruschen
       戈登·琼斯 Gordon Jones
       布鲁斯·卡伯特 Bruce Cabot


◎简  介

   乔治·华盛顿·麦克林托克(GeorgeWashingtonMcLintock),“GW”对朋友和敌人来说都是一样的,他是一位养牛大王,也是该地区最富有的人。他焦急地等待着女儿贝基的归来,贝基已经离开学校两年了。他还惊讶地看到他的妻子凯瑟琳也回来了。几年前,她离开了他,没有真正解释他做了什么,但她明确表示,她回来是为了带女儿回州议会大厦。GW受到他周围所有人的高度尊重,包括以免费土地涌入该地区的农民和面临搬迁到另一个保留地威胁的印度人。在他的妻子、任性的女儿、奸诈的土地经纪人和偷盗的印度政府特工之间,GW试图维持和平,做对每个人都最好的事。

Video
ID : 1
Format : HEVC
Format/Info : High Efficiency Video Coding
Format profile : Main@L5@Main
Codec ID : V_MPEGH/ISO/HEVC
Duration : 2 h 7 min
Bit rate : 9 395 kb/s
Width : 3 840 pixels
Height : 2 160 pixels
Display aspect ratio : 16:9
Frame rate mode : Constant
Frame rate : 23.976 (24000/1001) FPS
Color space : YUV
Chroma subsampling : 4:2:0
Bit depth : 8 bits
Bits/(Pixel*Frame) : 0.047
Stream size : 8.35 GiB (98%)
Writing library : x265 3.5+1-f0c1022b6:[Linux][GCC 9.3.0][64 bit] 8bit
Encoding settings : cpuid=1111039 / frame-threads=3 / wpp / no-pmode / no-pme / no-psnr / no-ssim / log-level=2 / input-csp=1 / input-res=3840x2160 / interlace=0 / total-frames=0 / level-idc=0 / high-tier=1 / uhd-bd=0 / ref=4 / no-allow-non-conformance / repeat-headers / annexb / no-aud / no-eob / no-eos / no-hrd / info / hash=0 / no-temporal-layers / open-gop / min-keyint=48 / keyint=48 / gop-lookahead=0 / bframes=4 / b-adapt=2 / b-pyramid / bframe-bias=0 / rc-lookahead=25 / lookahead-slices=4 / scenecut=0 / no-hist-scenecut / radl=0 / no-splice / no-intra-refresh / ctu=64 / min-cu-size=8 / rect / no-amp / max-tu-size=32 / tu-inter-depth=1 / tu-intra-depth=1 / limit-tu=0 / rdoq-level=2 / dynamic-rd=0.00 / no-ssim-rd / signhide / no-tskip / nr-intra=0 / nr-inter=0 / no-constrained-intra / strong-intra-smoothing / max-merge=3 / limit-refs=3 / limit-modes / me=3 / subme=3 / merange=57 / temporal-mvp / no-frame-dup / no-hme / weightp / no-weightb / no-analyze-src-pics / deblock=0:0 / sao / no-sao-non-deblock / rd=4 / selective-sao=4 / no-early-skip / rskip / no-fast-intra / no-tskip-fast / no-cu-lossless / no-b-intra / no-splitrd-skip / rdpenalty=0 / psy-rd=2.00 / psy-rdoq=1.00 / no-rd-refine / no-lossless / cbqpoffs=0 / crqpoffs=0 / rc=abr / bitrate=9505 / qcomp=0.60 / qpstep=4 / stats-write=0 / stats-read=2 / cplxblur=20.0 / qblur=0.5 / vbv-maxrate=11406 / vbv-bufsize=9505 / vbv-init=0.8 / min-vbv-fullness=50.0 / max-vbv-fullness=80.0 / ipratio=1.40 / pbratio=1.30 / aq-mode=2 / aq-strength=1.00 / cutree / zone-count=0 / no-strict-cbr / qg-size=32 / no-rc-grain / qpmax=69 / qpmin=0 / no-const-vbv / sar=1 / overscan=0 / videoformat=5 / range=0 / colorprim=1 / transfer=1 / colormatrix=1 / chromaloc=0 / display-window=0 / cll=0,0 / min-luma=0 / max-luma=255 / log2-max-poc-lsb=8 / vui-timing-info / vui-hrd-info / slices=1 / no-opt-qp-pps / no-opt-ref-list-length-pps / no-multi-pass-opt-rps / scenecut-bias=0.05 / hist-threshold=0.03 / no-opt-cu-delta-qp / no-aq-motion / no-hdr10 / no-hdr10-opt / no-dhdr10-opt / no-idr-recovery-sei / analysis-reuse-level=0 / analysis-save-reuse-level=0 / analysis-load-reuse-level=0 / scale-factor=0 / refine-intra=0 / refine-inter=0 / refine-mv=1 / refine-ctu-distortion=0 / no-limit-sao / ctu-info=0 / no-lowpass-dct / refine-analysis-type=0 / copy-pic=1 / max-ausize-factor=1.0 / no-dynamic-refine / no-single-sei / no-hevc-aq / no-svt / no-field / qp-adaptation-range=1.00 / scenecut-aware-qp=0conformance-window-offsets / right=0 / bottom=0 / decoder-max-rate=0 / no-vbv-live-multi-pass
Default : Yes
Forced : No
Color range : Limited
Color primaries : BT.709
Transfer characteristics : BT.709
Matrix coefficients : BT.709

Audio
ID : 2
Format : E-AC-3
Format/Info : Enhanced AC-3
Commercial name : Dolby Digital Plus
Codec ID : A_EAC3
Duration : 2 h 7 min
Bit rate mode : Constant
Bit rate : 192 kb/s
Channel(s) : 6 channels
Channel layout : L R C LFE Ls Rs
Sampling rate : 48.0 kHz
Frame rate : 31.250 FPS (1536 SPF)
Compression mode : Lossy
Stream size : 175 MiB (2%)
Language : English
Service kind : Complete Main
Default : Yes
Forced : No

Text
ID : 3
Format : UTF-8
Codec ID : S_TEXT/UTF8
Codec ID/Info : UTF-8 Plain Text
Duration : 2 h 6 min
Bit rate : 75 b/s
Count of elements : 2250
Stream size : 70.3 KiB (0%)
Language : English
Default : No
Forced : No

Menu
02:06:56.000 : en:Credits

资源速度为零或资源敏感被和谐时,推荐使用qBittorrent等下载软件,有条件的推荐115更好的下载软件!

下载地址:


游客,如果您要查看本帖隐藏内容请回复





上一篇:热带惊雷(简繁粤中字)/Tropic Thunder(2008)4K高清版本下载
下一篇:救急 (简繁中字) / Emergency (2022) 4K高清版本下载
回复

使用道具 举报

2

主题

1443

帖子

4351

积分

4K家园VIP

Rank: 9Rank: 9Rank: 9

积分
4351
发表于 2022-5-25 21:08:57 | 显示全部楼层
没明白
回复 支持 反对

使用道具 举报

4

主题

1419

帖子

4268

积分

4K家园VIP

Rank: 9Rank: 9Rank: 9

积分
4268
发表于 2022-5-25 22:48:25 | 显示全部楼层
我只是路过,不发表意见
回复 支持 反对

使用道具 举报

2

主题

1394

帖子

4018

积分

4K家园VIP

Rank: 9Rank: 9Rank: 9

积分
4018
发表于 2022-5-26 01:20:48 | 显示全部楼层
LZ敢整点更有创意的不?兄弟们等着围观捏~
回复 支持 反对

使用道具 举报

4

主题

1354

帖子

4082

积分

4K家园VIP

Rank: 9Rank: 9Rank: 9

积分
4082
发表于 2022-5-26 03:32:52 来自手机 | 显示全部楼层
纯粹路过,没任何兴趣,仅仅是看在老用户份上回复一下
回复 支持 反对

使用道具 举报

2

主题

1228

帖子

3704

积分

4K家园VIP

Rank: 9Rank: 9Rank: 9

积分
3704
发表于 2022-5-26 03:49:57 | 显示全部楼层
路过 帮顶 嘿嘿
回复 支持 反对

使用道具 举报

主题

帖子

0

积分

新手上路

Rank: 1

积分
0
发表于 2022-5-26 11:41:36 | 显示全部楼层
谢谢楼主分享
回复 支持 反对

使用道具 举报

主题

帖子

27

积分

新手上路

Rank: 1

积分
27
发表于 2022-5-26 12:42:46 | 显示全部楼层
我看看
回复

使用道具 举报

0

主题

67

帖子

1891

积分

注册会员

Rank: 2

积分
1891
发表于 2022-5-26 20:18:52 | 显示全部楼层

谢谢楼主分享
回复 支持 反对

使用道具 举报

主题

帖子

102

积分

新手上路

Rank: 1

积分
102
发表于 2022-5-29 13:12:12 | 显示全部楼层
老西部电影吧
回复 支持 反对

使用道具 举报

您需要登录后才可以回帖 登录 | 立即注册

本版积分规则

精彩图文
Archiver|手机版|TAG|Sitemap|新帖|专题|联系我们:邮箱: 4kjia.com@gmail.com   

4k家园   ©2019