[4K UHD 蓝光原盘] 越空狂龙 / Demolition Man (俄版)(1993) 4K蓝光REMUX 版本下载

[复制链接]

1657

主题

1728

帖子

1万

积分

超级版主

Rank: 8Rank: 8

积分
18334
 楼主| 发表于 2022-6-1 10:23:15 | 显示全部楼层 |阅读模式

QQ图片20220526213615_副本.png

◎译  名 越空狂龙 / 超级战警 / 爆破人 / 毁灭者
◎片  名 Demolition Man
◎年  代 1993
◎产  地 美国
◎类  别 动作 / 科幻 / 犯罪
◎语  言 英语
◎上映日期 1993-10-07
◎IMDb评分  6.6/10 from 113956 users
◎IMDb链接  https://www.imdb.com/title/tt0106697/
◎豆瓣评分 6.7/10 from 5786 users
◎豆瓣链接 https://movie.douban.com/subject/1297650/
◎片  长 115 分钟
◎导  演 马可·布拉姆贝拉 Marco Brambilla
◎编  剧 皮特·M·列科夫 Peter M. Lenkov / 丹尼尔·沃特斯 Daniel Waters
◎演  员 西尔维斯特·史泰龙 Sylvester Stallone
       韦斯利·斯奈普斯 Wesley Snipes
       桑德拉·布洛克 Sandra Bullock
       奈杰尔·霍桑 Nigel Hawthorne
       本杰明·布拉特 Benjamin Bratt
       鲍勃·冈顿 Bob Gunton
       格伦·沙迪克斯 Glenn Shadix
       丹尼斯·利瑞 Denis Leary
       格兰德·L·布什 Grand L. Bush
       保罗·博伦 Paul Bollen
       安德烈·格雷戈里 Andre Gregory
       约翰·伊诺斯三世 John Enos III
       布雷特·A·琼斯 Brett A. Jones
       布莱恩·汉娜 Bryan Hanna
       卡尔顿·威尔伯恩 Carlton Wilborn
       比利·D·卢卡斯 Billy D. Lucas
       斯图瓦特·斯科尔顿 Stewart Skelton
       安拉莱娜·斯科特 Anneliza Scott




◎简  介


  洛杉矶的“罪恶终结者”约翰(西尔维斯特?史泰龙 Sylvester Stallone 饰)因逮捕恶贯满盈的“铁凤凰”(韦斯利?斯奈普斯 Wesley Snipes 饰)时连带了30多人丧命,被判处了几十年的冰冻刑罚,而“铁凤凰”则被判无期冰冻。几十年过去了,约翰刑满获得解冻重回人间。此时人类的生活方式已和当年大不一样,为了令他尽快适应新社会,当局安排了一位女警的帮助了约翰。约翰的脑子里被植入了含有裁缝技能的记忆芯片,很明显当局想他当一名裁缝。
然而,“铁凤凰”阴差阳错地也从冰冻中苏醒并逃出了监狱。更为可怕的是,他的脑里植入了毁灭者的记忆芯片。未来,人类已经不再使用枪、火箭炮等野蛮的武器了。“铁凤凰”在武器博物馆里搞到了一切装备后,开始大肆破坏……

General
Complete name : G:\Demolition Man - Разрушитель.1993.BD.AI_UPSCALE_3840x2160_Final_SDR_prob-2.mkv
Format : Matroska
Format version : Version 4
File size : 58.9 GiB
Duration : 1 h 55 min
Overall bit rate mode : Variable
Overall bit rate : 73.2 Mb/s
Encoded date : UTC 2021-10-10 22:30:18
Writing application : mkvmerge v62.0.0 ('Apollo') 64-bit
Writing library : libebml v1.4.2 + libmatroska v1.6.4

Video
ID : 1
Format : HEVC
Format/Info : High Efficiency Video Coding
Format profile : Main@L5.2@Main
Codec ID : V_MPEGH/ISO/HEVC
Duration : 1 h 55 min
Bit rate : 62.5 Mb/s
Width : 3 840 pixels
Height : 2 160 pixels
Display aspect ratio : 16:9
Frame rate mode : Constant
Frame rate : 23.976 (24000/1001) FPS
Color space : YUV
Chroma subsampling : 4:2:0
Bit depth : 8 bits
Bits/(Pixel*Frame) : 0.314
Stream size : 50.2 GiB (85%)
Language : English
Default : Yes
Forced : No

Audio #1
ID : 2
Format : AC-3
Format/Info : Audio Coding 3
Commercial name : Dolby Digital
Codec ID : A_AC3
Duration : 1 h 55 min
Bit rate mode : Constant
Bit rate : 640 kb/s
Channel(s) : 6 channels
Channel layout : L R C LFE Ls Rs
Sampling rate : 48.0 kHz
Frame rate : 31.250 FPS (1536 SPF)
Compression mode : Lossy
Stream size : 527 MiB (1%)
Title : Дубляж, Blu-ray CEE
Language : Russian
Service kind : Complete Main
Default : Yes
Forced : Yes

Audio #2
ID : 3
Format : AC-3
Format/Info : Audio Coding 3
Commercial name : Dolby Digital
Codec ID : A_AC3
Duration : 1 h 54 min
Bit rate mode : Constant
Bit rate : 192 kb/s
Channel(s) : 2 channels
Channel layout : L R
Sampling rate : 48.0 kHz
Frame rate : 31.250 FPS (1536 SPF)
Compression mode : Lossy
Stream size : 158 MiB (0%)
Title : Дубляж, Варус-Видео
Language : Russian
Service kind : Complete Main
Default : No
Forced : No

Audio #3
ID : 4
Format : AC-3
Format/Info : Audio Coding 3
Commercial name : Dolby Digital
Codec ID : A_AC3
Duration : 1 h 54 min
Bit rate mode : Constant
Bit rate : 192 kb/s
Channel(s) : 2 channels
Channel layout : L R
Sampling rate : 48.0 kHz
Frame rate : 31.250 FPS (1536 SPF)
Compression mode : Lossy
Stream size : 158 MiB (0%)
Title : Профессиональный многоголосый - ОРТ
Language : Russian
Service kind : Complete Main
Default : No
Forced : No

Audio #4
ID : 5
Format : AC-3
Format/Info : Audio Coding 3
Commercial name : Dolby Digital
Codec ID : A_AC3
Duration : 1 h 55 min
Bit rate mode : Constant
Bit rate : 192 kb/s
Channel(s) : 2 channels
Channel layout : L R
Sampling rate : 48.0 kHz
Frame rate : 31.250 FPS (1536 SPF)
Compression mode : Lossy
Stream size : 158 MiB (0%)
Title : Профессиональный многоголосый - РТР
Language : Russian
Service kind : Complete Main
Default : No
Forced : No

Audio #5
ID : 6
Format : AC-3
Format/Info : Audio Coding 3
Commercial name : Dolby Digital
Codec ID : A_AC3
Duration : 1 h 55 min
Bit rate mode : Constant
Bit rate : 224 kb/s
Channel(s) : 2 channels
Channel layout : L R
Sampling rate : 48.0 kHz
Frame rate : 31.250 FPS (1536 SPF)
Compression mode : Lossy
Stream size : 184 MiB (0%)
Title : Профессиональный двухголосый - TV1000
Language : Russian
Service kind : Complete Main
Default : No
Forced : No

Audio #6
ID : 7
Format : DTS XLL
Format/Info : Digital Theater Systems
Commercial name : DTS-HD Master Audio
Codec ID : A_DTS
Duration : 1 h 55 min
Bit rate mode : Variable
Bit rate : 3 671 kb/s
Channel(s) : 6 channels
Channel layout : C L R Ls Rs LFE
Sampling rate : 48.0 kHz
Frame rate : 93.750 FPS (512 SPF)
Bit depth : 24 bits
Compression mode : Lossless
Stream size : 2.95 GiB (5%)
Title : Авторский - Андрей Гаврилов
Language : Russian
Default : No
Forced : No

Audio #7
ID : 8
Format : AC-3
Format/Info : Audio Coding 3
Commercial name : Dolby Digital
Codec ID : A_AC3
Duration : 1 h 55 min
Bit rate mode : Constant
Bit rate : 192 kb/s
Channel(s) : 2 channels
Channel layout : L R
Sampling rate : 44.1 kHz
Frame rate : 28.711 FPS (1536 SPF)
Compression mode : Lossy
Stream size : 158 MiB (0%)
Title : Авторский - Леонид Володарский
Language : Russian
Service kind : Complete Main
Default : No
Forced : No

Audio #8
ID : 9
Format : AC-3
Format/Info : Audio Coding 3
Commercial name : Dolby Digital
Codec ID : A_AC3
Duration : 1 h 55 min
Bit rate mode : Constant
Bit rate : 192 kb/s
Channel(s) : 2 channels
Channel layout : L R
Sampling rate : 48.0 kHz
Frame rate : 31.250 FPS (1536 SPF)
Compression mode : Lossy
Stream size : 158 MiB (0%)
Title : Авторский - Андрей Дольский
Language : Russian
Service kind : Complete Main
Default : No
Forced : No

Audio #9
ID : 10
Format : DTS
Format/Info : Digital Theater Systems
Codec ID : A_DTS
Duration : 1 h 55 min
Bit rate mode : Constant
Bit rate : 1 510 kb/s
Channel(s) : 6 channels
Channel layout : C L R Ls Rs LFE
Sampling rate : 48.0 kHz
Frame rate : 93.750 FPS (512 SPF)
Bit depth : 24 bits
Compression mode : Lossy
Stream size : 1.21 GiB (2%)
Title : Авторский - Михаил Чадов
Language : Russian
Default : No
Forced : No

Audio #10
ID : 11
Format : DTS XLL
Format/Info : Digital Theater Systems
Commercial name : DTS-HD Master Audio
Codec ID : A_DTS
Duration : 1 h 55 min
Bit rate mode : Variable
Bit rate : 3 704 kb/s
Channel(s) : 6 channels
Channel layout : C L R Ls Rs LFE
Sampling rate : 48.0 kHz
Frame rate : 93.750 FPS (512 SPF)
Bit depth : 24 bits
Compression mode : Lossless
Stream size : 2.98 GiB (5%)
Language : English
Default : No
Forced : No

Text #1
ID : 12
Format : PGS
Muxing mode : zlib
Codec ID : S_HDMV/PGS
Codec ID/Info : Picture based subtitle format used on BDs/HD-DVDs
Duration : 1 h 54 min
Bit rate : 39.1 kb/s
Count of elements : 3128
Stream size : 32.0 MiB (0%)
Language : English
Default : Yes
Forced : No

Text #2
ID : 13
Format : PGS
Muxing mode : zlib
Codec ID : S_HDMV/PGS
Codec ID/Info : Picture based subtitle format used on BDs/HD-DVDs
Duration : 1 h 54 min
Bit rate : 30.3 kb/s
Count of elements : 2946
Stream size : 24.8 MiB (0%)
Language : Russian
Default : No
Forced : No

Menu
00:00:00.000 : en:00:00:00.000
00:02:50.212 : en:00:02:50.212
00:07:10.847 : en:00:07:10.847
00:11:30.523 : en:00:11:30.523
00:16:46.214 : en:00:16:46.214
00:22:59.878 : en:00:22:59.878
00:28:39.468 : en:00:28:39.468
00:31:03.987 : en:00:31:03.987
00:32:43.879 : en:00:32:43.879
00:37:45.555 : en:00:37:45.555
00:41:26.776 : en:00:41:26.776
00:47:32.016 : en:00:47:32.016
00:51:13.320 : en:00:51:13.320
00:54:35.314 : en:00:54:35.314
00:57:18.018 : en:00:57:18.018
01:00:17.197 : en:01:00:17.197
01:03:16.543 : en:01:03:16.543
01:07:41.933 : en:01:07:41.933
01:14:57.326 : en:01:14:57.326
01:17:39.446 : en:01:17:39.446
01:19:54.331 : en:01:19:54.331
01:24:09.253 : en:01:24:09.253
01:27:03.885 : en:01:27:03.885
01:28:04.905 : en:01:28:04.905
01:30:25.962 : en:01:30:25.962
01:34:50.310 : en:01:34:50.310
01:37:10.825 : en:01:37:10.825
01:41:16.904 : en:01:41:16.904
01:45:52.179 : en:01:45:52.179
01:48:42.641 : en:01:48:42.641


新种推荐使用qBittorrent、uTorrent等下载软件,有条件的推荐115更好的下载软件!

越空狂龙(58.85GB)Demolition Man - Разрушитель.1993.BD.AI_UPSCALE_3840x2160_Final_SDR_prob-【2160P蓝光REMUX】
游客,如果您要查看本帖隐藏内容请回复







4K QQ,爱心.gif

上一篇:铁面无私 (内嵌简繁粤中字)(1987) 4K蓝光[原盘+REMUX]版本下载
下一篇:清道夫:布局 / Ray Donovan (2022) 4K蓝光[原盘+REMUX]版本下载
回复

使用道具 举报

52

主题

1499

帖子

4365

积分

4K家园VIP

Rank: 9Rank: 9Rank: 9

积分
4365
发表于 2022-6-1 10:23:20 | 显示全部楼层
4K家园资源不错,前排支持
回复 支持 反对

使用道具 举报

0

主题

1696

帖子

4640

积分

4K家园VIP

Rank: 9Rank: 9Rank: 9

积分
4640
发表于 2022-6-1 10:23:20 | 显示全部楼层
感谢分享
回复 支持 反对

使用道具 举报

0

主题

380

帖子

2325

积分

注册会员

Rank: 2

积分
2325
发表于 2022-6-1 12:01:07 | 显示全部楼层
感谢分享
回复

使用道具 举报

0

主题

2

帖子

12

积分

新手上路

Rank: 1

积分
12
发表于 2022-6-1 14:22:42 | 显示全部楼层
看看俄版电影
回复 支持 反对

使用道具 举报

1

主题

1425

帖子

4131

积分

4K家园VIP

Rank: 9Rank: 9Rank: 9

积分
4131
发表于 2022-6-2 03:17:37 | 显示全部楼层
我只是看看啊,不说话
回复 支持 反对

使用道具 举报

38

主题

1484

帖子

4270

积分

4K家园VIP

Rank: 9Rank: 9Rank: 9

积分
4270
发表于 2022-6-2 13:58:10 | 显示全部楼层
楼猪辛苦了,支持一下分享好资源
回复 支持 反对

使用道具 举报

1

主题

1363

帖子

3921

积分

4K家园VIP

Rank: 9Rank: 9Rank: 9

积分
3921
发表于 2022-6-2 14:03:38 | 显示全部楼层
支持一下楼主,顶起来
回复 支持 反对

使用道具 举报

您需要登录后才可以回帖 登录 | 立即注册

本版积分规则

精彩图文
Archiver|手机版|TAG|Sitemap|新帖|专题|联系我们:邮箱: 4kjia.com@gmail.com   

4k家园   ©2019