[4K UHD 蓝光原盘] 旺角卡门 (国语)/As Tears Go By (1988) 4K蓝光[原盘+REMUX]版本下载

[复制链接]

1657

主题

1728

帖子

1万

积分

超级版主

Rank: 8Rank: 8

积分
18334
 楼主| 发表于 2022-5-28 16:22:42 | 显示全部楼层 |阅读模式
9999.png

◎译  名 旺角卡门 / 热血男儿(台) / As Tears Go By
◎片  名 旺角卡門
◎年  代 1988
◎产  地 中国香港
◎类  别 剧情 / 爱情 / 犯罪
◎语  言 粤语
◎上映日期 1988-06-09(中国香港)
◎IMDb评分  7.0/10 from 10395 users
◎IMDb链接  https://www.imdb.com/title/tt0096461/
◎豆瓣评分 7.8/10 from 189164 users
◎豆瓣链接 https://movie.douban.com/subject/1304624/
◎片  长 102 分钟
◎导  演 王家卫 Kar Wai Wong
◎编  剧 王家卫 Kar Wai Wong
◎演  员 刘德华 Andy Lau
       张学友 Jacky Cheung
       张曼玉 Maggie Cheung
       万梓良 Alex Man
       林蛟 Kau Lam
       黄斌 Ronald Wong
       陈志辉 Chi Fai Chan
       江道海 To-hoi Kong
       张叔平 William Chang
       黄拔景 Huang Pa-Ching
       邓泰和 Tai Wo Tang
       陈文妤 Man-Hiu Chan
       张荣祥 Cheung Wing-Cheung
       秦贵宝 Kwai Po Chun
       刘伟强 Andrew Lau
       简达华 Tat-Wah Gan
       许芬 Fan Hui
       江浪 Kong Long
       黄莺 Canary Wong
       马玉成 Yuk-Sing Ma
       白茵 Yan Pak
       甘山 San Gam
       钟定一 Danny Chung
       缪健辉 Tony Miu
       刘伟强 Andrew Lau
       敖志君 Peter Ngor
       曹惠琪 Hui-Chi Tsao
       蒋彼得 Pi Tak Cheong
       张叔平 William Chang
       卢瑞莲 Sui Lin Lo
       江约诚 Johnnie Kong Yeuk-Sing
       江道海 To-hoi Kong
       董玮 Wai Tung
       黄志明 Wong Chi-Ming
       邓光荣 Alan Tang



◎简  介

  香港九龙区旺角混混阿杰(刘德华)做事利落重情义,颇有老大风范,为了照顾做事冲动又好面子的小弟乌蝇(张学友),他不停地在各种大小麻烦中周旋,甚至不惜为乌蝇与黑道狠角色(万梓良)结仇。
阿杰表妹阿娥(张曼玉)前来旺角看病暂住他家,两人慢慢互生情愫,但因为担心自己的身份最终会给阿娥带来伤害,阿杰选择了将心事埋藏。待阿杰明白真情抑压不住想对命运做番抵抗时,乌蝇却再次因好面子面临生命危险,于是一道友情与爱情必选其一的难题重又摆在阿杰面前。

◎获奖情况 (共12项)
  第25届台北金马影展 (1988)
  金马奖 最佳导演(提名) 王家卫
  金马奖 最佳美术设计(提名) 张叔平

  第8届香港电影金像奖 (1989)
  最佳电影(提名)
  最佳导演(提名) 王家卫
  最佳男主角(提名) 刘德华
  最佳女主角(提名) 张曼玉
  最佳男配角 张学友
  最佳男配角(提名) 万梓良
  最佳摄影(提名) 刘伟强
  最佳剪接(提名) 蒋彼得
  最佳美术指导 张叔平
  最佳原创电影音乐(提名) 钟定一

Video
ID : 1
Format : HEVC
Format/Info : High Efficiency Video Coding
Format profile : Main 10@L5.1@High
HDR format : SMPTE ST 2086, HDR10 compatible
Codec ID : V_MPEGH/ISO/HEVC
Duration : 1 h 39 min
Bit rate : 35.8 Mb/s
Width : 3 840 pixels
Height : 2 160 pixels
Display aspect ratio : 16:9
Frame rate mode : Constant
Frame rate : 23.976 (24000/1001) FPS
Color space : YUV
Chroma subsampling : 4:2:0 (Type 2)
Bit depth : 10 bits
Bits/(Pixel*Frame) : 0.180
Stream size : 24.8 GiB (99%)
Writing library : x265 3.5+35-e3713124d:[Windows][GCC 11.2.0][64 bit] 10bit
Encoding settings : cpuid=1111039 / frame-threads=6 / numa-pools=32 / wpp / no-pmode / no-pme / no-psnr / no-ssim / log-level=2 / input-csp=1 / input-res=3840x2160 / interlace=0 / total-frames=142637 / level-idc=51 / high-tier=1 / uhd-bd=0 / ref=4 / no-allow-non-conformance / repeat-headers / annexb / aud / no-eob / no-eos / hrd / info / hash=0 / no-temporal-layers / no-open-gop / min-keyint=23 / keyint=250 / gop-lookahead=0 / bframes=4 / b-adapt=2 / b-pyramid / bframe-bias=0 / rc-lookahead=25 / lookahead-slices=4 / scenecut=40 / no-hist-scenecut / radl=0 / no-splice / no-intra-refresh / ctu=64 / min-cu-size=8 / rect / no-amp / max-tu-size=32 / tu-inter-depth=1 / tu-intra-depth=1 / limit-tu=0 / rdoq-level=2 / dynamic-rd=0.00 / no-ssim-rd / signhide / no-tskip / nr-intra=0 / nr-inter=0 / no-constrained-intra / no-strong-intra-smoothing / max-merge=3 / limit-refs=3 / limit-modes / me=3 / subme=3 / merange=57 / temporal-mvp / no-frame-dup / no-hme / weightp / no-weightb / no-analyze-src-pics / deblock=-3:-3 / no-sao / no-sao-non-deblock / rd=4 / selective-sao=0 / no-early-skip / rskip / no-fast-intra / no-tskip-fast / no-cu-lossless / no-b-intra / no-splitrd-skip / rdpenalty=0 / psy-rd=2.00 / psy-rdoq=1.00 / no-rd-refine / no-lossless / cbqpoffs=0 / crqpoffs=0 / rc=crf / crf=14.0 / qcomp=0.60 / qpstep=4 / stats-write=0 / stats-read=0 / vbv-maxrate=160000 / vbv-bufsize=160000 / vbv-init=0.9 / min-vbv-fullness=50.0 / max-vbv-fullness=80.0 / crf-max=0.0 / crf-min=0.0 / ipratio=1.40 / pbratio=1.30 / aq-mode=2 / aq-strength=1.00 / cutree / zone-count=0 / no-strict-cbr / qg-size=32 / no-rc-grain / qpmax=69 / qpmin=0 / no-const-vbv / sar=1 / overscan=0 / videoformat=5 / range=0 / colorprim=9 / transfer=16 / colormatrix=9 / chromaloc=1 / chromaloc-top=2 / chromaloc-bottom=2 / display-window=0 / master-display=G(8500,39850)B(6550,2300)R(35400,14600)WP(15635,16450)L(10000000,01) / cll=1000,400 / min-luma=0 / max-luma=1023 / log2-max-poc-lsb=8 / vui-timing-info / vui-hrd-info / slices=1 / no-opt-qp-pps / no-opt-ref-list-length-pps / no-multi-pass-opt-rps / scenecut-bias=0.05 / hist-threshold=0.03 / no-opt-cu-delta-qp / no-aq-motion / hdr10 / hdr10-opt / no-dhdr10-opt / no-idr-recovery-sei / analysis-reuse-level=0 / analysis-save-reuse-level=0 / analysis-load-reuse-level=0 / scale-factor=0 / refine-intra=0 / refine-inter=0 / refine-mv=1 / refine-ctu-distortion=0 / no-limit-sao / ctu-info=0 / no-lowpass-dct / refine-analysis-type=0 / copy-pic=1 / max-ausize-factor=1.0 / no-dynamic-refine / no-single-sei / no-hevc-aq / no-svt / no-field / qp-adaptation-range=1.00 / scenecut-aware-qp=0conformance-window-offsets / right=0 / bottom=0 / decoder-max-rate=0 / no-vbv-live-multi-pass
Default : Yes
Forced : No
Color range : Limited
Color primaries : BT.2020
Transfer characteristics : PQ
Matrix coefficients : BT.2020 non-constant
Mastering display color primaries : BT.2020
Mastering display luminance : min: 0.0001 cd/m2, max: 1000 cd/m2
Maximum Content Light Level : 1000 cd/m2
Maximum Frame-Average Light Level : 400 cd/m2

Audio
ID : 2
Format : FLAC
Format/Info : Free Lossless Audio Codec
Codec ID : A_FLAC
Duration : 1 h 39 min
Bit rate mode : Variable
Bit rate : 346 kb/s
Channel(s) : 2 channels
Channel layout : L R
Sampling rate : 48.0 kHz
Frame rate : 11.719 FPS (4096 SPF)
Bit depth : 16 bits
Compression mode : Lossless
Stream size : 245 MiB (1%)
Writing library : libFLAC 1.3.2 (UTC 2017-01-01)
Language : 中文
Default : Yes
Forced : No


Text #1
ID : 3
Format : UTF-8
Codec ID : S_TEXT/UTF8
Codec ID/Info : UTF-8 Plain Text
Duration : 1 h 32 min
Bit rate : 42 b/s
Count of elements : 963
Stream size : 28.7 KiB (0%)
Language : English
Default : Yes
Forced : Yes

Text #2
ID : 4
Format : PGS
Muxing mode : zlib
Codec ID : S_HDMV/PGS
Codec ID/Info : Picture based subtitle format used on BDs/HD-DVDs
Duration : 1 h 32 min
Bit rate : 36.6 kb/s
Count of elements : 1926
Stream size : 24.3 MiB (0%)
Language : English
Default : No
Forced : No

Text #3
ID : 5
Format : PGS
Muxing mode : zlib
Codec ID : S_HDMV/PGS
Codec ID/Info : Picture based subtitle format used on BDs/HD-DVDs
Duration : 1 h 31 min
Bit rate : 25.5 kb/s
Count of elements : 1742
Stream size : 16.7 MiB (0%)
Language : German
Default : No
Forced : No

Text #4
ID : 6
Format : PGS
Muxing mode : zlib
Codec ID : S_HDMV/PGS
Codec ID/Info : Picture based subtitle format used on BDs/HD-DVDs
Duration : 25 min 34 s
Bit rate : 119 b/s
Count of elements : 4
Stream size : 22.4 KiB (0%)
Language : German
Default : No
Forced : No

Menu
00:00:00.000 : en:Chapter 01
00:07:58.895 : en:Chapter 02
00:12:17.361 : en:Chapter 03
00:18:04.625 : en:Chapter 04
00:24:06.403 : en:Chapter 05
00:28:54.274 : en:Chapter 06
00:36:24.098 : en:Chapter 07
00:43:43.203 : en:Chapter 08
00:47:31.598 : en:Chapter 09
00:56:53.284 : en:Chapter 10
01:01:49.330 : en:Chapter 11
01:08:37.822 : en:Chapter 12
01:15:17.179 : en:Chapter 13
01:24:58.426 : en:Chapter 14
01:29:26.903 : en:Chapter 15
01:37:30.761 : en:Chapter 16
01:39:07.858 : en:Chapter 17
新种推荐使用qBittorrent、uTorrent等下载软件,有条件的推荐115更好的下载软件!


其他版本待补...

旺角卡门(25.03GB)As.Tears.Go.By.1988.CHINESE.2160p.UHD.BluRay.x265.10bit.HDR.FLAC.2.0-SURCODE
游客,如果您要查看本帖隐藏内容请回复







211826fxv4qxz856xz6dxv.gif

上一篇:宇宙天魔 / Lifeforce (1985) 4K蓝光[原盘+REMUX]版本下载
下一篇:悲伤的贝拉多娜 (1973) 4K蓝光[原盘+REMUX]版本下载
回复

使用道具 举报

39

主题

1449

帖子

4113

积分

4K家园VIP

Rank: 9Rank: 9Rank: 9

积分
4113
发表于 2022-5-28 16:22:46 | 显示全部楼层
楼主这资源不错,我收藏了
回复 支持 反对

使用道具 举报

1

主题

1367

帖子

4115

积分

4K家园VIP

Rank: 9Rank: 9Rank: 9

积分
4115
发表于 2022-5-28 16:46:48 来自手机 | 显示全部楼层
楼猪辛苦了,支持一下分享好资源
回复 支持 反对

使用道具 举报

55

主题

1529

帖子

4419

积分

4K家园VIP

Rank: 9Rank: 9Rank: 9

积分
4419
发表于 2022-5-28 17:10:19 | 显示全部楼层
我只是看看啊,不说话
回复 支持 反对

使用道具 举报

40

主题

1508

帖子

4336

积分

4K家园VIP

Rank: 9Rank: 9Rank: 9

积分
4336
发表于 2022-5-28 17:28:37 | 显示全部楼层
还有没有别的资源,多分享些
回复 支持 反对

使用道具 举报

3

主题

1385

帖子

4179

积分

4K家园VIP

Rank: 9Rank: 9Rank: 9

积分
4179
发表于 2022-5-28 17:31:33 | 显示全部楼层
你们要是有4K资源记得分享,别小气
回复 支持 反对

使用道具 举报

0

主题

2

帖子

13

积分

新手上路

Rank: 1

积分
13
发表于 2022-5-29 09:12:05 | 显示全部楼层

你们要是有4K资源记得分享,别小气
你们要是有4K资源记得分享,别小气
回复 支持 反对

使用道具 举报

0

主题

380

帖子

2325

积分

注册会员

Rank: 2

积分
2325
发表于 2022-5-29 11:26:50 | 显示全部楼层
楼主这资源不错
回复 支持 反对

使用道具 举报

0

主题

120

帖子

5909

积分

高级会员

Rank: 3Rank: 3

积分
5909
发表于 2022-5-29 14:23:47 | 显示全部楼层
试试先,好用再说
回复 支持 反对

使用道具 举报

0

主题

1

帖子

6

积分

新手上路

Rank: 1

积分
6
发表于 2022-5-29 19:58:17 | 显示全部楼层
感谢分享
回复

使用道具 举报

您需要登录后才可以回帖 登录 | 立即注册

本版积分规则

精彩图文
Archiver|手机版|TAG|Sitemap|新帖|专题|联系我们:邮箱: 4kjia.com@gmail.com   

4k家园   ©2019