[4K电影] 零接触 / Zero Contact (2022) 4K高清版本下载

[复制链接]

1868

主题

2007

帖子

1万

积分

超级版主

Rank: 8Rank: 8

积分
15027
 楼主| 发表于 2022-5-29 09:34:21 | 显示全部楼层 |阅读模式
QQ图片20220529091108_副本.png

◎译  名 零接触
◎片  名 Zero Contact
◎年  代 2022
◎产  地 美国
◎类  别 惊悚
◎语  言 英语
◎上映日期 2022-05-27(美国网络)
◎IMDb评分  0/10 from 0 users
◎IMDb链接  https://www.imdb.com/title/tt12359080/
◎豆瓣评分 0/10 from 0 users
◎豆瓣链接 https://movie.douban.com/subject/35419239/
◎编  剧 卡姆·坎农 Cam Cannon
◎演  员 安东尼·霍普金斯 Anthony Hopkins
       图娃·诺沃妮 Tuva Novotny
       艾德里安·霍姆斯 Adrian Holmes
       阿莱克斯·潘诺维奇 Aleks Paunovic
       鲁奇娅·伯纳德 Rukiya Bernard
       维罗尼卡·费瑞尔 Veronica Ferres
       克里斯·布罗楚 Chris Brochu
       Juliet Sorci Juliet Sorci
       詹姆斯·C·伯恩斯 James C. Burns
       Martin Stenmarck
       莉莉.库拉格 Lilly Krug

◎简  介

  在 2020 年全球大流行期间,完全虚拟地在 17 个不同的国家生产。

Video
ID : 1
Format : HEVC
Format/Info : High Efficiency Video Coding
Format profile : Main 10@L5@High
Codec ID : V_MPEGH/ISO/HEVC
Duration : 1 h 36 min
Bit rate : 20.5 Mb/s
Width : 3 828 pixels
Height : 2 148 pixels
Display aspect ratio : 16:9
Frame rate mode : Constant
Frame rate : 23.976 FPS
Color space : YUV
Chroma subsampling : 4:2:0
Bit depth : 10 bits
Bits/(Pixel*Frame) : 0.104
Stream size : 13.8 GiB (98%)
Default : Yes
Forced : No
Color range : Limited
Color primaries : BT.709
Transfer characteristics : BT.709
Matrix coefficients : BT.709

Audio
ID : 2
Format : AC-3
Format/Info : Audio Coding 3
Commercial name : Dolby Digital
Codec ID : A_AC3
Duration : 1 h 36 min
Bit rate mode : Constant
Bit rate : 384 kb/s
Channel(s) : 6 channels
Channel layout : L R C LFE Ls Rs
Sampling rate : 48.0 kHz
Frame rate : 31.250 FPS (1536 SPF)
Compression mode : Lossy
Stream size : 265 MiB (2%)
Language : English
Service kind : Complete Main
Default : Yes
Forced : No

Text
ID : 3
Format : UTF-8
Codec ID : S_TEXT/UTF8
Codec ID/Info : UTF-8 Plain Text
Duration : 1 h 34 min
Bit rate : 82 b/s
Count of elements : 1476
Stream size : 57.3 KiB (0%)
Title : English CC
Language : English
Default : No
Forced : No

Menu
00:00:00.000 : en:Chapter 01
00:10:57.000 : en:Chapter 02
00:23:07.000 : en:Chapter 03
00:36:58.000 : en:Chapter 04
00:53:01.000 : en:Chapter 05
01:06:29.000 : en:Chapter 06
01:21:38.000 : en:Chapter 07
01:26:31.000 : en:Chapter 08


资源速度为零或资源敏感被和谐时,推荐使用qBittorrent等下载软件,有条件的推荐115更好的下载软件!

下载地址:


游客,如果您要查看本帖隐藏内容请回复







上一篇:救急 (简繁中字) / Emergency (2022) 4K高清版本下载
下一篇:记录在案 / On the Record (2020) 4K高清版本下载
回复

使用道具 举报

4

主题

1428

帖子

4120

积分

中级会员

Rank: 4

积分
4120
发表于 2022-5-29 09:34:25 | 显示全部楼层
你们要是有4K资源记得分享,别小气
回复 支持 反对

使用道具 举报

201

主题

1743

帖子

4791

积分

4K家园VIP

Rank: 9Rank: 9Rank: 9

积分
4791
发表于 2022-5-29 10:43:07 来自手机 | 显示全部楼层
试试先,好用再说
回复 支持 反对

使用道具 举报

0

主题

3

帖子

15

积分

新手上路

Rank: 1

积分
15
发表于 2022-5-29 11:07:31 | 显示全部楼层
v公开黄瓜发苦杨贵妃
回复 支持 反对

使用道具 举报

0

主题

120

帖子

5909

积分

高级会员

Rank: 3Rank: 3

积分
5909
发表于 2022-5-29 14:23:07 | 显示全部楼层
支持一下分享好资源
回复 支持 反对

使用道具 举报

37

主题

1511

帖子

4337

积分

4K家园VIP

Rank: 9Rank: 9Rank: 9

积分
4337
发表于 2022-5-29 14:39:32 | 显示全部楼层
没人回帖。。。我来个吧
回复 支持 反对

使用道具 举报

48

主题

1549

帖子

4471

积分

4K家园VIP

Rank: 9Rank: 9Rank: 9

积分
4471
发表于 2022-5-29 17:18:49 | 显示全部楼层
看起来好像不错的样子
回复 支持 反对

使用道具 举报

0

主题

1458

帖子

4188

积分

4K家园VIP

Rank: 9Rank: 9Rank: 9

积分
4188
发表于 2022-5-29 17:51:45 | 显示全部楼层
垃圾内容,路过为证。
回复 支持 反对

使用道具 举报

0

主题

1

帖子

6

积分

新手上路

Rank: 1

积分
6
发表于 2022-6-3 08:54:32 | 显示全部楼层

free live naked girls

free live naked girls
回复 支持 反对

使用道具 举报

0

主题

92

帖子

609

积分

4K家园VIP

Rank: 9Rank: 9Rank: 9

积分
609
发表于 2022-6-3 11:12:48 | 显示全部楼层
让 江小白 来看看帖子里藏了啥好东西~~~
回复 支持 反对

使用道具 举报

您需要登录后才可以回帖 登录 | 立即注册

本版积分规则

精彩图文
Archiver|手机版|TAG|Sitemap|新帖|专题|联系我们:邮箱: 4kjia.com@gmail.com   

4k家园   ©2019