[4K UHD 蓝光原盘] 龙和雀斑公主 (俄版) (2021) 4K蓝光REMUX 版本下载

[复制链接]

1884

主题

1969

帖子

2万

积分

超级版主

Rank: 8Rank: 8

积分
20220
 楼主| 发表于 2022-5-30 11:17:13 | 显示全部楼层 |阅读模式
本帖最后由 没完没了 于 2022-5-30 11:19 编辑

QQ图片20220529095924_副本.png

◎译  名 龙和雀斑公主 / 龙与雀斑公主(港 / 台) / Belle / Belle: The Princess of Dragons and Freckles / Ry? to sobakasu no hime
◎片  名 竜とそばかすの姫
◎年  代 2021
◎产  地 日本
◎类  别 科幻 / 动画 / 冒险
◎语  言 日语
◎上映日期 2021-07-15(戛纳电影节) / 2021-07-16(日本)
◎IMDb评分  7.2/10 from 7816 users
◎IMDb链接  https://www.imdb.com/title/tt13651628/
◎豆瓣评分 6.1/10 from 7600 users
◎豆瓣链接 https://movie.douban.com/subject/35287908/
◎片  长 122分钟
◎导  演 细田守 Mamoru Hosoda
◎编  剧 细田守 Mamoru Hosoda
◎演  员 中村佳穗 Kaho Nakamura
       佐藤健 Takeru Satoh
       成田凌 Ryo Narita
       染谷将太 Sh?ta Sometan
       玉城蒂娜 Tina Tamashiro
       几田莉拉 Ikura
       森川智之 Toshiyuki Morikawa
       津田健次郎 Kenjir? Tsuda
       小山茉美 Mami Koyama
       宫野真守 Mamoru Miyano
       森山良子 Ryoko Moriyama
       役所广司 K?ji Yakusho
       伊豆田莉奈 Rina Izuta
       川村元气 Genki Kawamura
       岩崎太整 Taisei Iwasaki


◎简  介

  17岁的高中女生铃年幼丧母,因怨恨母亲为了救一个陌生的孩子而离开了自己,曾经很喜欢唱歌的她,变得郁郁寡欢,不再开口。然而一次偶然的机会,让她进入了有50亿用户的虚拟世界U中,在这里,她又开始自然奔放的歌唱,并迅速走红,化身成为了全球最受欢迎的网络歌姬,现实世界中那个脸上长着雀斑,缺乏自信,找不到自己位置的铃,成功躲到了虚拟世界中光鲜亮丽的面具人格贝儿的后面。正当她踌躇满志的站上了U世界最大演唱会的舞台时,真正的挑战降临了,突然出现的一条神秘的龙破坏了演唱会。龙到底是谁,为什么他的身上布满了伤痕?铃在探寻真相的路上,唤醒了自身的勇气和力量,用爱和歌声战胜了挑战,和妈妈达成了理解的同时,也终于实现了她的自我救赎。

◎获奖情况 (共7项)
  第45届日本电影学院奖 (2022)
  最佳动画片(提名)
  最佳配乐

  第49届动画安妮奖 (2022)
  最佳独立动画长片(提名)
  最佳导演(提名) 细田守
  最佳编剧(提名) 细田守
  最佳制作(提名)
  最佳动画效果(提名)
Video
ID                                       : 1
ID in the original source medium         : 4113 (0x1011)
Format                                   : HEVC
Format/Info                              : High Efficiency Video Coding
Format profile                           : Main 10@L5.1@High
HDR format                               : Dolby Vision, Version 1.0, dvhe.07.06, BL+EL+RPU, Blu-ray compatible / SMPTE ST 2086, HDR10 compatible
Codec ID                                 : V_MPEGH/ISO/HEVC
Duration                                 : 2 h 1 min
Bit rate                                 : 74.6 Mb/s
Width                                    : 3 840 pixels
Height                                   : 2 160 pixels
Display aspect ratio                     : 16:9
Frame rate mode                          : Constant
Frame rate                               : 23.976 (24000/1001) FPS
Color space                              : YUV
Chroma subsampling                       : 4:2:0 (Type 2)
Bit depth                                : 10 bits
Bits/(Pixel*Frame)                       : 0.375
Stream size                              : 63.2 GiB (87%)
Language                                 : English
Default                                  : No
Forced                                   : No
Color range                              : Limited
Color primaries                          : BT.2020
Transfer characteristics                 : PQ
Matrix coefficients                      : BT.2020 non-constant
Mastering display color primaries        : BT.2020
Mastering display luminance              : min: 0.0001 cd/m2, max: 1000 cd/m2
Maximum Content Light Level              : 522 cd/m2
Maximum Frame-Average Light Level        : 198 cd/m2
Original source medium                   : Blu-ray

Audio #1
ID                                       : 2
ID in the original source medium         : 4352 (0x1100)
Format                                   : PCM
Format settings                          : Little / Signed
Codec ID                                 : A_PCM/INT/LIT
Duration                                 : 2 h 1 min
Bit rate mode                            : Constant
Bit rate                                 : 2 304 kb/s
Channel(s)                               : 2 channels
Sampling rate                            : 48.0 kHz
Frame rate                               : 30.000 FPS (1600 SPF)
Bit depth                                : 24 bits
Stream size                              : 1.95 GiB (3%)
Title                                    : Stereo
Language                                 : Japanese
Default                                  : Yes
Forced                                   : No
Original source medium                   : Blu-ray

Audio #2
ID                                       : 3
ID in the original source medium         : 4353 (0x1101)
Format                                   : MLP FBA 16-ch
Format/Info                              : Meridian Lossless Packing FBA with 16-channel presentation
Commercial name                          : Dolby TrueHD with Dolby Atmos
Codec ID                                 : A_TRUEHD
Duration                                 : 2 h 1 min
Bit rate mode                            : Variable
Bit rate                                 : 7 208 kb/s
Maximum bit rate                         : 14.1 Mb/s
Channel(s)                               : 8 channels
Channel layout                           : L R C LFE Ls Rs Lb Rb
Sampling rate                            : 48.0 kHz
Frame rate                               : 1 200.000 FPS (40 SPF)
Bit depth                                : 24 bits
Compression mode                         : Lossless
Stream size                              : 6.10 GiB (8%)
Title                                    : Surround 7.1
Language                                 : Japanese
Default                                  : No
Forced                                   : No
Original source medium                   : Blu-ray
Number of dynamic objects                : 15
Bed channel count                        : 1 channel
Bed channel configuration                : LFE

Audio #3
ID                                       : 4
ID in the original source medium         : 4353 (0x1101)
Format                                   : AC-3
Format/Info                              : Audio Coding 3
Commercial name                          : Dolby Digital
Codec ID                                 : A_AC3
Duration                                 : 2 h 1 min
Bit rate mode                            : Constant
Bit rate                                 : 640 kb/s
Channel(s)                               : 6 channels
Channel layout                           : L R C LFE Ls Rs
Sampling rate                            : 48.0 kHz
Frame rate                               : 31.250 FPS (1536 SPF)
Compression mode                         : Lossy
Stream size                              : 555 MiB (1%)
Title                                    : Surround 5.1
Language                                 : Japanese
Service kind                             : Complete Main
Default                                  : No
Forced                                   : No
Original source medium                   : Blu-ray

Audio #4
ID                                       : 5
Format                                   : FLAC
Format/Info                              : Free Lossless Audio Codec
Codec ID                                 : A_FLAC
Duration                                 : 2 h 1 min
Bit rate mode                            : Variable
Bit rate                                 : 647 kb/s
Channel(s)                               : 2 channels
Channel layout                           : L R
Sampling rate                            : 48.0 kHz
Frame rate                               : 11.719 FPS (4096 SPF)
Bit depth                                : 16 bits
Compression mode                         : Lossless
Stream size                              : 561 MiB (1%)
Title                                    : Студийная банда
Writing library                          : libFLAC 1.3.2 (UTC 2019-08-04)
Language                                 : Russian
Default                                  : Yes
Forced                                   : No

Text
ID                                       : 6
ID in the original source medium         : 4768 (0x12A0)
Format                                   : PGS
Muxing mode                              : zlib
Codec ID                                 : S_HDMV/PGS
Codec ID/Info                            : Picture based subtitle format used on BDs/HD-DVDs
Duration                                 : 1 h 56 min
Bit rate                                 : 35.1 kb/s
Count of elements                        : 3327
Stream size                              : 29.3 MiB (0%)
Language                                 : Japanese
Default                                  : No
Forced                                   : No
Original source medium                   : Blu-ray

新种推荐使用qBittorrent、uTorrent等下载软件,有条件的推荐115更好的下载软件!

美女与龙 4K蓝光REMUX(72.39GB).mkv
****此区域为收费内容****    需支付 30 金币后可查看立即购买

龙和雀斑公主(29.55GB)Ryuu to Sobakasu no Hime [BDRip 1608p x265 Dolby TrueHD]
****此区域为收费内容****    需支付 9 金币后可查看立即购买




211826fxv4qxz856xz6dxv.gif



上一篇:忌日快乐 / Happy Death Day (2017)4K蓝光[原盘+REMUX]版本下载
下一篇:忌日快乐2 / Happy Death Day 2U (2019) 4K蓝光[原盘+REMUX]版本下载
回复

使用道具 举报

46

主题

1515

帖子

4389

积分

4K家园VIP

Rank: 9Rank: 9Rank: 9

积分
4389
发表于 2022-5-30 11:17:19 | 显示全部楼层
谢谢楼主
回复 支持 反对

使用道具 举报

0

主题

468

帖子

2853

积分

注册会员

Rank: 2

积分
2853
发表于 2022-5-30 12:58:00 | 显示全部楼层
谢谢楼主分享
回复 支持 反对

使用道具 举报

0

主题

67

帖子

1840

积分

注册会员

Rank: 2

积分
1840
发表于 2022-5-30 18:30:14 | 显示全部楼层
谢谢楼主分享
回复 支持 反对

使用道具 举报

0

主题

125

帖子

6101

积分

高级会员

Rank: 3Rank: 3

积分
6101
发表于 2022-5-31 08:57:32 | 显示全部楼层
感谢楼主分享资源!
回复 支持 反对

使用道具 举报

2

主题

1188

帖子

3584

积分

4K家园VIP

Rank: 9Rank: 9Rank: 9

积分
3584
发表于 2022-5-31 22:27:23 | 显示全部楼层
谢谢楼主
回复 支持 反对

使用道具 举报

1

主题

1638

帖子

4488

积分

4K家园VIP

Rank: 9Rank: 9Rank: 9

积分
4488
发表于 2022-6-1 04:01:21 | 显示全部楼层
多发些资源啊
回复 支持 反对

使用道具 举报

3

主题

1215

帖子

3659

积分

4K家园VIP

Rank: 9Rank: 9Rank: 9

积分
3659
发表于 2022-6-2 16:34:32 | 显示全部楼层
谢谢楼主
回复 支持 反对

使用道具 举报

38

主题

1554

帖子

4442

积分

4K家园VIP

Rank: 9Rank: 9Rank: 9

积分
4442
发表于 2022-6-3 12:51:30 | 显示全部楼层
谢谢楼主
回复 支持 反对

使用道具 举报

0

主题

1

帖子

60

积分

4K家园VIP

Rank: 9Rank: 9Rank: 9

积分
60
发表于 2022-7-2 12:51:04 | 显示全部楼层
谢谢楼主分享
回复 支持 反对

使用道具 举报

您需要登录后才可以回帖 登录 | 立即注册

本版积分规则

精彩图文
Archiver|手机版|TAG|Sitemap|新帖|专题|联系我们:邮箱: 4kjia.com@gmail.com   

4k家园   ©2019