[4K电影] 神奇动物:邓布利多之谜(内封中字) (2022) 4K高清版本下载

  [复制链接]

2118

主题

2259

帖子

1万

积分

超级版主

Rank: 8Rank: 8

积分
16577
 楼主| 发表于 2022-5-30 15:56:40 | 显示全部楼层 |阅读模式
本帖最后由 最爱4K哟 于 2022-5-31 15:08 编辑

QQ图片20220530160221_副本.png

◎译  名 神奇动物:邓布利多之谜/神奇动物在哪里3:邓布利多之谜/神奇生物在哪里3/怪兽与邓不利多的秘密(港/台)
◎片  名 Fantastic Beasts: The Secrets of Dumbledore
◎年  代 2022
◎产  地 英国/美国
◎类  别 奇幻/冒险
◎语  言 英语/德语
◎上映日期 2022-04-08(英国/中国大陆)/2022-04-15(美国)
◎IMDb评分  6.4/10 from 65596 users
◎IMDb链接  https://www.imdb.com/title/tt4123432/
◎豆瓣评分 6.0/10 from 138071 users
◎豆瓣链接 https://movie.douban.com/subject/26147418/
◎导  演 大卫·叶茨 David Yates
◎编  剧 J. K. 罗琳 J. K. Rowling / 史蒂夫·克洛夫斯 Steve Kloves
◎主  演 埃迪·雷德梅恩 Eddie Redmayne
       裘德·洛 Jude Law
       麦斯·米科尔森 Mads Mikkelsen
       丹·福勒 Dan Fogler
       艾莉森·萨多尔 Alison Sudol
       凯瑟琳·沃特斯顿 Katherine Waterston
       埃兹拉·米勒 Ezra Miller
       卡勒姆·特纳 Callum Turner
       杰西卡·威廉姆斯 Jessica Williams
       理查德·柯伊尔 Richard Coyle
       波佩·科比-特曲 Poppy Corby-Tuech
       维多利亚·耶茨 Victoria Yeates
       威廉·纳迪兰 William Nadylam
       奥利弗·马苏奇 Oliver Masucci
       瓦莱丽·帕赫纳 Valerie Pachner
       亚历山大·库兹涅佐夫 Aleksandr Kuznetsov
       拉莫娜·库泽-莉比诺 Ramona Kunze-Libnow
       马丽娅·费尔南达·康基多 Maria Fernanda Candido
       戴夫·王 Dave Wong
       维尔夫·斯科尔丁 Wilf Scolding
       卢卡斯·英格兰德 Lucas Englander
       菲奥娜·格拉斯科特 Fiona Glascott
       马提亚斯·布伦纳 Matthias Brenner
       彼得·西蒙尼舍克 Peter Simonischek
       雅基·波特斯万 Jacqui Boatswain
       赫柏·贝尔德索尔 Hebe Beardsall
       曼努埃尔·克莱因 Manuel Klein
       凯文·格思里 Kevin Guthrie


◎简  介


  阿不思·邓布利多教授(裘德·洛 饰)意识到强大的黑巫师盖勒特·格林德沃(麦斯·米科尔森 饰)正试图夺取魔法世界的控制权。邓布利多了解仅凭他一人之力,将无法阻止格林德沃,于是他委托魔法动物学家纽特·斯卡曼德(埃迪·雷德梅恩 饰)带领一支精良的团队——成员包括男巫、女巫及一位勇敢的麻瓜面包师,来共同执行这项危险任务。一路上他们会遇到各式各样的神奇动物,既有老朋友,也有前所未见的神秘生物;同时他们也随时会与格林德沃不断壮大的追随者发生冲突。这次行动的风险是如此之高……邓布利多还能袖手旁观多久?

Video
ID : 1
Format : HEVC
Format/Info : High Efficiency Video Coding
Format profile : Main 10@L5@Main
HDR format : Dolby Vision, Version 1.0, dvhe.05.06, BL+RPU
Codec ID : dvhe
Codec ID/Info : High Efficiency Video Coding with Dolby Vision
Duration : 2 h 22 min
Bit rate : 17.6 Mb/s
Width : 3 840 pixels
Height : 2 160 pixels
Display aspect ratio : 16:9
Frame rate mode : Constant
Frame rate : 23.976 (24000/1001) FPS
Color space : YUV
Chroma subsampling : 4:2:0
Bit depth : 10 bits
Bits/(Pixel*Frame) : 0.089
Stream size : 17.6 GiB (96%)
Writing library : x265 3.4hy:[Linux][GCC 7.5.0][64 bit] 10bit
Encoding settings : cpuid=1111039 / frame-threads=6 / no-wpp / no-pmode / no-pme / no-psnr / no-ssim / log-level=2 / input-csp=1 / input-res=3840x2160 / interlace=0 / total-frames=0 / level-idc=0 / high-tier=1 / uhd-bd=0 / ref=4 / no-allow-non-conformance / repeat-headers / annexb / aud / hrd / info / hash=0 / no-temporal-layers / no-open-gop / min-keyint=96 / keyint=96 / gop-lookahead=0 / bframes=4 / b-adapt=2 / b-pyramid / bframe-bias=0 / rc-lookahead=25 / lookahead-slices=4 / scenecut=40 / hist-scenecut=0 / radl=0 / no-splice / no-intra-refresh / ctu=64 / min-cu-size=8 / rect / no-amp / max-tu-size=32 / tu-inter-depth=1 / tu-intra-depth=1 / limit-tu=0 / rdoq-level=2 / dynamic-rd=0.00 / no-ssim-rd / signhide / no-tskip / nr-intra=0 / nr-inter=0 / no-constrained-intra / strong-intra-smoothing / max-merge=3 / limit-refs=3 / limit-modes / me=3 / subme=3 / merange=57 / temporal-mvp / no-frame-dup / no-hme / weightp / no-weightb / no-analyze-src-pics / deblock=0:0 / sao / no-sao-non-deblock / rd=4 / selective-sao=4 / no-early-skip / rskip / no-fast-intra / no-tskip-fast / no-cu-lossless / no-b-intra / no-splitrd-skip / rdpenalty=0 / psy-rd=2.00 / psy-rdoq=1.00 / no-rd-refine / no-lossless / cbqpoffs=0 / crqpoffs=3 / rc=abr / bitrate=18000 / qcomp=0.60 / qpstep=4 / stats-write=0 / stats-read=2 / cplxblur=20.0 / qblur=0.5 / vbv-maxrate=24500 / vbv-bufsize=24500 / vbv-init=0.6 / vbv-end=0.6 / vbv-end-fr-adj=0.0 / ipratio=1.40 / pbratio=1.30 / aq-mode=2 / aq-strength=1.00 / cutree / zone-count=0 / no-strict-cbr / qg-size=32 / no-rc-grain / qpmax=69 / qpmin=0 / no-const-vbv / sar=1 / overscan=0 / videoformat=5 / range=1 / colorprim=2 / transfer=2 / colormatrix=2 / chromaloc=0 / display-window=0 / cll=0,0 / min-luma=0 / max-luma=1023 / log2-max-poc-lsb=8 / vui-timing-info / vui-hrd-info / no-concatenation / slices=1 / no-opt-qp-pps / no-opt-ref-list-length-pps / no-multi-pass-opt-rps / scenecut-bias=0.05 / hist-threshold=0.01 / no-opt-cu-delta-qp / no-aq-motion / no-hdr10 / no-hdr10-opt / no-dhdr10-opt / no-idr-recovery-sei / analysis-reuse-level=0 / analysis-save-reuse-level=0 / analysis-load-reuse-level=0 / scale-factor=0 / refine-intra=0 / refine-inter=0 / refine-mv=1 / refine-ctu-distortion=0 / no-limit-sao / ctu-info=0 / no-lowpass-dct / refine-analysis-type=0 / copy-pic=1 / max-ausize-factor=1.0 / no-dynamic-refine / no-single-sei / no-hevc-aq / no-svt / no-field / qp-adaptation-range=1.00 / no-scenecut-aware-qpconformance-window-offsets / right=0 / bottom=0 / decoder-max-rate=0
Default : Yes
Alternate group : 1
Color range : Full
Codec configuration box : hvcC+dvcC

Audio
ID : 2
Format : E-AC-3 JOC
Format/Info : Enhanced AC-3 with Joint Object Coding
Commercial name : Dolby Digital Plus with Dolby Atmos
Codec ID : ec-3
Duration : 2 h 22 min
Bit rate mode : Constant
Bit rate : 768 kb/s
Maximum bit rate : 811 kb/s
Channel(s) : 6 channels
Channel layout : L R C LFE Ls Rs
Sampling rate : 48.0 kHz
Frame rate : 31.250 FPS (1536 SPF)
Compression mode : Lossy
Stream size : 784 MiB (4%)
Language : English
Service kind : Complete Main
Default : Yes
Alternate group : 1
Complexity index : Not present / 16
Number of dynamic objects : 15
Bed channel count : 1 channel
Bed channel configuration : LFE

Text #1
ID : 4
Format : Timed Text
Codec ID : tx3g
Duration : 2 h 12 min
Bit rate mode : Variable
Bit rate : 40 b/s
Stream size : 39.2 KiB (0%)
Language : English
Forced : No

Text #2
ID : 5
Format : Timed Text
Codec ID : tx3g
Duration : 2 h 20 min
Bit rate mode : Variable
Bit rate : 51 b/s
Stream size : 52.7 KiB (0%)
Title : SDH
Language : English
Forced : No

Text #3
ID : 6
Format : Timed Text
Codec ID : tx3g
Duration : 2 h 22 min
Bit rate mode : Variable
Bit rate : 53 b/s
Stream size : 55.4 KiB (0%)
Language : Bulgarian
Forced : No

Text #4
ID : 7
Format : Timed Text
Codec ID : tx3g
Duration : 2 h 22 min
Bit rate mode : Variable
Bit rate : 34 b/s
Stream size : 35.9 KiB (0%)
Title : Czechia
Language : Czech
Forced : No

Text #5
ID : 8
Format : Timed Text
Codec ID : tx3g
Duration : 2 h 22 min
Bit rate mode : Variable
Bit rate : 34 b/s
Stream size : 35.9 KiB (0%)
Title : Denmark
Language : Danish
Forced : No

Text #6
ID : 9
Format : Timed Text
Codec ID : tx3g
Duration : 2 h 22 min
Bit rate mode : Variable
Bit rate : 37 b/s
Stream size : 38.2 KiB (0%)
Title : Latin America
Language : Spanish
Forced : No

Text #7
ID : 10
Format : Timed Text
Codec ID : tx3g
Duration : 2 h 22 min
Bit rate mode : Variable
Bit rate : 35 b/s
Stream size : 36.7 KiB (0%)
Language : Spanish
Forced : No

Text #8
ID : 11
Format : Timed Text
Codec ID : tx3g
Duration : 2 h 22 min
Bit rate mode : Variable
Bit rate : 35 b/s
Stream size : 36.1 KiB (0%)
Language : Finnish
Forced : No

Text #9
ID : 12
Format : Timed Text
Codec ID : tx3g
Duration : 2 h 22 min
Bit rate mode : Variable
Bit rate : 35 b/s
Stream size : 36.5 KiB (0%)
Language : Croatian
Forced : No

Text #10
ID : 13
Format : Timed Text
Codec ID : tx3g
Duration : 2 h 22 min
Bit rate mode : Variable
Bit rate : 33 b/s
Stream size : 34.2 KiB (0%)
Language : Hungarian
Forced : No

Text #11
ID : 14
Format : Timed Text
Codec ID : tx3g
Duration : 2 h 22 min
Bit rate mode : Variable
Bit rate : 51 b/s
Stream size : 53.1 KiB (0%)
Language : Macedonian
Forced : No

Text #12
ID : 15
Format : Timed Text
Codec ID : tx3g
Duration : 2 h 22 min
Bit rate mode : Variable
Bit rate : 31 b/s
Stream size : 32.8 KiB (0%)
Language : Dutch
Forced : No

Text #13
ID : 16
Format : Timed Text
Codec ID : tx3g
Duration : 2 h 22 min
Bit rate mode : Variable
Bit rate : 35 b/s
Stream size : 36.2 KiB (0%)
Language : Norwegian
Forced : No

Text #14
ID : 17
Format : Timed Text
Codec ID : tx3g
Duration : 2 h 22 min
Bit rate mode : Variable
Bit rate : 34 b/s
Stream size : 35.3 KiB (0%)
Language : Polish
Forced : No

Text #15
ID : 18
Format : Timed Text
Codec ID : tx3g
Duration : 2 h 22 min
Bit rate mode : Variable
Bit rate : 37 b/s
Stream size : 38.2 KiB (0%)
Title : Brazil
Language : Portuguese
Forced : No

Text #16
ID : 19
Format : Timed Text
Codec ID : tx3g
Duration : 2 h 22 min
Bit rate mode : Variable
Bit rate : 37 b/s
Stream size : 39.0 KiB (0%)
Language : Portuguese
Forced : No

Text #17
ID : 20
Format : Timed Text
Codec ID : tx3g
Duration : 2 h 22 min
Bit rate mode : Variable
Bit rate : 37 b/s
Stream size : 38.2 KiB (0%)
Language : Romanian
Forced : No

Text #18
ID : 21
Format : Timed Text
Codec ID : tx3g
Duration : 2 h 22 min
Bit rate mode : Variable
Bit rate : 33 b/s
Stream size : 34.6 KiB (0%)
Language : Slovak
Forced : No

Text #19
ID : 22
Format : Timed Text
Codec ID : tx3g
Duration : 2 h 22 min
Bit rate mode : Variable
Bit rate : 30 b/s
Stream size : 31.8 KiB (0%)
Title : Slovenia
Language : Slovenian
Forced : No

Text #20
ID : 23
Format : Timed Text
Codec ID : tx3g
Duration : 2 h 22 min
Bit rate mode : Variable
Bit rate : 32 b/s
Stream size : 33.7 KiB (0%)
Title : Latin, Serbia
Language : Serbian
Forced : No

Text #21
ID : 24
Format : Timed Text
Codec ID : tx3g
Duration : 2 h 22 min
Bit rate mode : Variable
Bit rate : 33 b/s
Stream size : 34.3 KiB (0%)
Title : Sweden
Language : Swedish
Forced : No

Text #22
ID : 25
Format : Timed Text
Codec ID : tx3g
Duration : 2 h 20 min
Bit rate mode : Variable
Bit rate : 50 b/s
Stream size : 51.7 KiB (0%)
Title : Latin America (SDH)
Language : Spanish
Forced : No

Menu
00:00:00.000 : Promo
00:00:31.031 : Promo End
02:13:19.000 : Credits

资源速度为零或资源敏感被和谐时,推荐使用qBittorrent等下载软件,有条件的推荐115更好的下载软件!

下载地址:
游客,如果您要查看本帖隐藏内容请回复

游客,如果您要查看本帖隐藏内容请回复

游客,如果您要查看本帖隐藏内容请回复

游客,如果您要查看本帖隐藏内容请回复

游客,如果您要查看本帖隐藏内容请回复
游客,如果您要查看本帖隐藏内容请回复

游客,如果您要查看本帖隐藏内容请回复

游客,如果您要查看本帖隐藏内容请回复



外挂字幕文件(不喜勿下)
游客,如果您要查看本帖隐藏内容请回复









上一篇:机关枪囚徒 / Kaithi (2019) 4K高清版本下载
下一篇:地心抢险记 (简繁中字) / The Core (2003) 4K高清版本下载
回复

使用道具 举报

5

主题

1377

帖子

4157

积分

4K家园VIP

Rank: 9Rank: 9Rank: 9

积分
4157
发表于 2022-5-30 15:56:45 | 显示全部楼层
怎么这么大,希望我电视能看啊
回复 支持 反对

使用道具 举报

0

主题

1

帖子

6

积分

新手上路

Rank: 1

积分
6
发表于 2022-5-30 16:09:04 | 显示全部楼层
谢谢分享资源
回复 支持 反对

使用道具 举报

0

主题

1

帖子

6

积分

新手上路

Rank: 1

积分
6
发表于 2022-5-30 16:38:04 | 显示全部楼层
谢谢楼主分享
回复 支持 反对

使用道具 举报

0

主题

3

帖子

12

积分

新手上路

Rank: 1

积分
12
发表于 2022-5-30 17:41:58 来自手机 | 显示全部楼层
感谢楼主分享
回复 支持 反对

使用道具 举报

0

主题

18

帖子

535

积分

新手上路

Rank: 1

积分
535
发表于 2022-5-30 18:29:52 | 显示全部楼层
这部要看一看
回复 支持 反对

使用道具 举报

0

主题

5

帖子

35

积分

新手上路

Rank: 1

积分
35
发表于 2022-5-30 18:46:54 | 显示全部楼层
感谢!
回复

使用道具 举报

0

主题

5

帖子

35

积分

新手上路

Rank: 1

积分
35
发表于 2022-5-30 18:47:17 | 显示全部楼层
真的非常感谢!
回复 支持 反对

使用道具 举报

0

主题

5

帖子

35

积分

新手上路

Rank: 1

积分
35
发表于 2022-5-30 18:48:02 | 显示全部楼层
再次谢谢分享!
回复 支持 反对

使用道具 举报

0

主题

2

帖子

12

积分

新手上路

Rank: 1

积分
12
发表于 2022-5-30 18:49:19 | 显示全部楼层
謝謝大老
回复

使用道具 举报

您需要登录后才可以回帖 登录 | 立即注册

本版积分规则

精彩图文
Archiver|手机版|TAG|Sitemap|新帖|专题|联系我们:邮箱: 4kjia.com@gmail.com   

4k家园   ©2019