手枪 / Pistol (2022) / 第一季6集全/ 4K高清版本下载

[复制链接]

203

主题

226

帖子

2233

积分

版主

Rank: 7Rank: 7Rank: 7

积分
2233
 楼主| 发表于 2022-6-1 12:07:54 | 显示全部楼层 |阅读模式
本帖最后由 美剧小虾 于 2022-6-1 12:22 编辑

c4cd93647cf934a87b27bb5b1289b068_副本.jpg

◎译  名 手枪
◎片  名 Pistol
◎年  代 2022
◎产  地 美国
◎类  别 剧情/音乐/传记
◎语  言 英语
◎上映日期 2022-05-31(美国)
◎IMDb评分  7.6/10 from 163 users
◎IMDb链接  https://www.imdb.com/title/tt13823494/
◎豆瓣评分 /10 from 0 users
◎豆瓣链接 https://douban.com/subject/35321448/
◎集  数 6
◎导  演 丹尼·博伊尔 Danny Boyle
◎编  剧 克雷格·皮尔斯 Craig Pearce / 弗兰克·科特雷尔·博伊斯 Frank Cottrell Boyce / 史蒂夫·琼斯 Steve Jones
◎主  演 托比·华莱士 Toby Wallace
       安森·布恩 Anson Boon
       克里斯蒂安·利斯 Christian Lees
       路易斯·帕特里奇 Louis Partridge
       雅各布·斯莱特 Jacob Slater
       麦茜·威廉姆斯 Maisie Williams
       托马斯·布罗迪-桑斯特 Thomas Brodie-Sangster
       妲露拉·莱莉 Talulah Riley
       西德尼·钱德勒 Sydney Chandler
       迪兰·卢埃林 Dylan Llewellyn
       艾玛·阿普尔顿 Emma Appleton
       艾瑞丝·洛 Iris Law
       杰伊·辛普森 Jay Simpson
       阿历克斯·阿诺 Alexander Arnold
       汤姆·福布斯 Tom Forbes
       凯·亚历山大 Kai Alexander
       查理·普莱斯 Charlie Price
       小恩佐·斯奎利诺 Enzo Squillino Jr.
       斯塔奇·希克斯 Stacha Hicks
       卡罗尔·斯蒂尔 Karol Steele
       洛恩·麦克菲登 Lorne MacFadyen
       法比安·弗兰克尔 Fabien Frankel


◎简  介


  丹尼·博伊尔将拍摄以英国“性手枪”乐队吉他手史蒂夫·琼斯为主题的六集限定剧《手枪》(Pistol,暂译),卡司非常诱人:托比·华莱士([乳牙])饰演年轻时代的琼斯,路易斯·帕特里奇([福尔摩斯小姐])饰演贝斯手席德维瑟斯,艾玛·阿普尔顿饰演饰演席德的女友南希。雅各布·斯拉特饰演鼓手保罗·库克,法比安·弗兰克尔([毒蛇])饰演贝斯吉他手格伦·马特洛克、迪兰·卢埃林(《德里女孩》)饰演性手枪乐队前身河滨乐队的组建成员之一沃利·南丁格尔,麦茜·威廉姆斯(《权力的游戏》)饰演朋克偶像乔丹,安森·布恩([宽恕])饰演音乐人约翰·莱顿、西尼·钱德勒([亲爱的别担心])饰演摇滚乐手克里希·海德。该剧根据琼斯的回忆录《孤独男孩:性手枪的故事》改编,博伊尔还将担任制作人。
Video
ID : 1
Format : HEVC
Format/Info : High Efficiency Video Coding
Format profile : Main 10@L5.1@Main
Codec ID : V_MPEGH/ISO/HEVC
Duration : 56 min 30 s
Bit rate : 15.6 Mb/s
Width : 3 840 pixels
Height : 2 160 pixels
Display aspect ratio : 16:9
Frame rate mode : Constant
Frame rate : 23.976 (24000/1001) FPS
Color space : YUV
Chroma subsampling : 4:2:0
Bit depth : 10 bits
Bits/(Pixel*Frame) : 0.078
Stream size : 6.15 GiB (96%)
Default : Yes
Forced : No

Audio
ID : 2
Format : E-AC-3
Format/Info : Enhanced AC-3
Commercial name : Dolby Digital Plus
Codec ID : A_EAC3
Duration : 56 min 30 s
Bit rate mode : Constant
Bit rate : 256 kb/s
Channel(s) : 6 channels
Channel layout : L R C LFE Ls Rs
Sampling rate : 48.0 kHz
Frame rate : 31.250 FPS (1536 SPF)
Compression mode : Lossy
Delay relative to video : 24 ms
Stream size : 103 MiB (2%)
Language : English
Service kind : Complete Main
Default : Yes
Forced : No

Text
ID : 3
Format : UTF-8
Codec ID : S_TEXT/UTF8
Codec ID/Info : UTF-8 Plain Text
Title : English [SDH]
Language : English
Default : No
Forced : No

下载地址:

游客,如果您要查看本帖隐藏内容请回复







上一篇:肖尔西 / Shoresy (2022)/第一季6集全/ 4K高清版本下载
下一篇:黑帮少女呯呯呯(简繁中字)(2022)/第一季集10全/4K高清版本下载
回复

使用道具 举报

1

主题

1547

帖子

4489

积分

4K家园VIP

Rank: 9Rank: 9Rank: 9

积分
4489
发表于 2022-6-1 12:15:05 | 显示全部楼层
不错 支持下
回复 支持 反对

使用道具 举报

43

主题

1515

帖子

4353

积分

4K家园VIP

Rank: 9Rank: 9Rank: 9

积分
4353
发表于 2022-6-1 15:43:29 | 显示全部楼层
报告!别开枪,我就是路过来看看的。。。
回复 支持 反对

使用道具 举报

3

主题

1355

帖子

4089

积分

4K家园VIP

Rank: 9Rank: 9Rank: 9

积分
4089
发表于 2022-6-1 16:04:27 | 显示全部楼层
珍爱生命,果断回帖。
回复 支持 反对

使用道具 举报

195

主题

1601

帖子

4405

积分

4K家园VIP

Rank: 9Rank: 9Rank: 9

积分
4405
发表于 2022-6-1 18:10:58 来自手机 | 显示全部楼层
呵呵。。。
回复 支持 反对

使用道具 举报

1

主题

1370

帖子

4126

积分

4K家园VIP

Rank: 9Rank: 9Rank: 9

积分
4126
发表于 2022-6-1 20:53:09 | 显示全部楼层
啥玩应呀
回复 支持 反对

使用道具 举报

0

主题

1

帖子

6

积分

新手上路

Rank: 1

积分
6
发表于 2022-7-26 23:16:27 | 显示全部楼层
我要下载
回复

使用道具 举报

您需要登录后才可以回帖 登录 | 立即注册

本版积分规则

精彩图文
Archiver|手机版|TAG|Sitemap|新帖|专题|联系我们:邮箱: 4kjia.com@gmail.com   

4k家园   ©2019