黑帮少女呯呯呯(简繁中字)(2022)/第一季集10全/4K高清版本下载

[复制链接]

主题

帖子

0

积分

超级版主

Rank: 8Rank: 8

积分
0
 楼主| 发表于 2022-6-2 11:16:45 | 显示全部楼层 |阅读模式
本帖最后由 美剧小虾 于 2022-6-2 11:19 编辑

p2872190934_副本.jpg

◎译  名 黑帮少女呯呯呯 第一季
◎片  名 BANG BANG BABY Season 1
◎年  代 2022
◎产  地 意大利
◎类  别 犯罪
◎语  言 意大利语
◎上映日期 2022-04-28(意大利)
◎IMDb评分  6.4/10 from 343 users
◎IMDb链接  https://www.imdb.com/title/tt15564662/
◎豆瓣评分 0/10 from 0 users
◎豆瓣链接 https://douban.com/subject/35760504/
◎导  演 安德里亚·迪·斯戴法诺 Andrea Di Stefano
◎主  演 阿里安娜·贝切罗尼 Arianna Becheroni
                    安东尼奥·杰拉尔迪 Antonio Gerardi
                    多拉·罗马诺  Dora Romano
                    露西娅·马斯奇诺 Lucia Mascino
                    阿德里亚诺·詹尼尼 Adriano Giannini
                    朱塞佩·德多梅尼科 Giuseppe De Domenico
                    丹尼斯·卡佩扎 Denise Capezza
                    尼古拉·尼基  Nicola Nicchi
                    卡蒂娅·格雷科 Katia Greco
                    埃琳娜·吉利奥蒂  Elena Gigliotti
                    埃尼亚·巴罗齐 Enea Barozzi
                    卡梅洛·乔达诺 Carmelo Giordano
                    彼得罗·帕奇尼 Pietro Paschini
                    克里斯蒂娜·安德里亚·罗萨米利亚 Christina Andrea Rosamilia
                    欧内斯托·马修 Ernesto Mahieux
                    萨拉·博萨雷利 Sara Borsarelli
                    埃米利亚诺·布里奥斯基 Emiliano Brioschi
                    西尔维娅·加莱拉诺 Silvia Gallerano
                    马帝亚·史巴吉亚 Mattia Sbragia
                    Giorgia Arena  Giorgia Arena



◎简  介

  爱丽丝是一个害羞的青少年,为了赢得父亲的爱,她成为黑手党组织中最年轻的成员。

Video
ID : 1
Format : HEVC
Format/Info : High Efficiency Video Coding
Format profile : Main 10@L5@Main
HDR format : SMPTE ST 2094 App 4, Version 1, HDR10+ Profile B compatible
Codec ID : V_MPEGH/ISO/HEVC
Duration : 55 min 27 s
Bit rate : 14.1 Mb/s
Width : 3 840 pixels
Height : 2 160 pixels
Display aspect ratio : 16:9
Frame rate mode : Constant
Frame rate : 25.000 FPS
Color space : YUV
Chroma subsampling : 4:2:0
Bit depth : 10 bits
Bits/(Pixel*Frame) : 0.068
Stream size : 5.45 GiB (96%)
Default : Yes
Forced : No
Color range : Limited
Color primaries : BT.2020
Transfer characteristics : PQ
Matrix coefficients : BT.2020 non-constant
Mastering display color primaries : Display P3
Mastering display luminance : min: 0.0001 cd/m2, max: 1000 cd/m2
Maximum Content Light Level : 993 cd/m2
Maximum Frame-Average Light Level : 233 cd/m2

Audio
ID : 2
Format : E-AC-3
Format/Info : Enhanced AC-3
Commercial name : Dolby Digital Plus
Codec ID : A_EAC3
Duration : 55 min 27 s
Bit rate mode : Constant
Bit rate : 640 kb/s
Channel(s) : 6 channels
Channel layout : L R C LFE Ls Rs
Sampling rate : 48.0 kHz
Frame rate : 31.250 FPS (1536 SPF)
Compression mode : Lossy
Stream size : 254 MiB (4%)
Language : Italian
Service kind : Complete Main
Default : Yes
Forced : No

Text #1
ID : 3
Format : UTF-8
Codec ID : S_TEXT/UTF8
Codec ID/Info : UTF-8 Plain Text
Duration : 42 min 36 s
Bit rate : 19 b/s
Count of elements : 192
Stream size : 6.21 KiB (0%)
Title : Forced
Language : Italian
Default : Yes
Forced : Yes

Text #2
ID : 4
Format : UTF-8
Codec ID : S_TEXT/UTF8
Codec ID/Info : UTF-8 Plain Text
Duration : 50 min 53 s
Bit rate : 43 b/s
Count of elements : 510
Stream size : 16.4 KiB (0%)
Language : English
Default : No
Forced : No

Text #3
ID : 5
Format : UTF-8
Codec ID : S_TEXT/UTF8
Codec ID/Info : UTF-8 Plain Text
Duration : 53 min 58 s
Bit rate : 73 b/s
Count of elements : 530
Stream size : 29.2 KiB (0%)
Language : Arabic
Default : No
Forced : No

Text #4
ID : 6
Format : UTF-8
Codec ID : S_TEXT/UTF8
Codec ID/Info : UTF-8 Plain Text
Duration : 53 min 58 s
Bit rate : 42 b/s
Count of elements : 530
Stream size : 17.0 KiB (0%)
Language : Czech
Default : No
Forced : No

Text #5
ID : 7
Format : UTF-8
Codec ID : S_TEXT/UTF8
Codec ID/Info : UTF-8 Plain Text
Duration : 53 min 58 s
Bit rate : 41 b/s
Count of elements : 515
Stream size : 16.3 KiB (0%)
Language : Danish
Default : No
Forced : No

Text #6
ID : 8
Format : UTF-8
Codec ID : S_TEXT/UTF8
Codec ID/Info : UTF-8 Plain Text
Duration : 53 min 58 s
Bit rate : 43 b/s
Count of elements : 515
Stream size : 17.4 KiB (0%)
Language : German
Default : No
Forced : No

Text #7
ID : 9
Format : UTF-8
Codec ID : S_TEXT/UTF8
Codec ID/Info : UTF-8 Plain Text
Duration : 53 min 58 s
Bit rate : 78 b/s
Count of elements : 521
Stream size : 31.2 KiB (0%)
Language : Greek
Default : No
Forced : No

Text #8
ID : 10
Format : UTF-8
Codec ID : S_TEXT/UTF8
Codec ID/Info : UTF-8 Plain Text
Duration : 53 min 58 s
Bit rate : 42 b/s
Count of elements : 515
Stream size : 16.7 KiB (0%)
Title : Latin American
Language : Spanish
Default : No
Forced : No

Text #9
ID : 11
Format : UTF-8
Codec ID : S_TEXT/UTF8
Codec ID/Info : UTF-8 Plain Text
Duration : 53 min 58 s
Bit rate : 41 b/s
Count of elements : 515
Stream size : 16.5 KiB (0%)
Language : Spanish
Default : No
Forced : No

Text #10
ID : 12
Format : UTF-8
Codec ID : S_TEXT/UTF8
Codec ID/Info : UTF-8 Plain Text
Duration : 53 min 58 s
Bit rate : 40 b/s
Count of elements : 515
Stream size : 16.2 KiB (0%)
Language : Finnish
Default : No
Forced : No

Text #11
ID : 13
Format : UTF-8
Codec ID : S_TEXT/UTF8
Codec ID/Info : UTF-8 Plain Text
Duration : 53 min 58 s
Bit rate : 44 b/s
Count of elements : 528
Stream size : 17.6 KiB (0%)
Language : fil
Default : No
Forced : No

Text #12
ID : 14
Format : UTF-8
Codec ID : S_TEXT/UTF8
Codec ID/Info : UTF-8 Plain Text
Duration : 53 min 58 s
Bit rate : 41 b/s
Count of elements : 513
Stream size : 16.4 KiB (0%)
Language : French
Default : No
Forced : No

Text #13
ID : 15
Format : UTF-8
Codec ID : S_TEXT/UTF8
Codec ID/Info : UTF-8 Plain Text
Duration : 53 min 58 s
Bit rate : 66 b/s
Count of elements : 530
Stream size : 26.4 KiB (0%)
Language : Hebrew
Default : No
Forced : No

Text #14
ID : 16
Format : UTF-8
Codec ID : S_TEXT/UTF8
Codec ID/Info : UTF-8 Plain Text
Duration : 53 min 58 s
Bit rate : 106 b/s
Count of elements : 515
Stream size : 42.1 KiB (0%)
Language : Hindi
Default : No
Forced : No

Text #15
ID : 17
Format : UTF-8
Codec ID : S_TEXT/UTF8
Codec ID/Info : UTF-8 Plain Text
Duration : 53 min 58 s
Bit rate : 43 b/s
Count of elements : 525
Stream size : 17.3 KiB (0%)
Language : Hungarian
Default : No
Forced : No

Text #16
ID : 18
Format : UTF-8
Codec ID : S_TEXT/UTF8
Codec ID/Info : UTF-8 Plain Text
Duration : 53 min 58 s
Bit rate : 42 b/s
Count of elements : 529
Stream size : 16.6 KiB (0%)
Language : Indonesian
Default : No
Forced : No

Text #17
ID : 19
Format : UTF-8
Codec ID : S_TEXT/UTF8
Codec ID/Info : UTF-8 Plain Text
Duration : 51 min 0 s
Bit rate : 59 b/s
Count of elements : 654
Stream size : 22.1 KiB (0%)
Title : SDH
Language : Italian
Default : No
Forced : No

Text #18
ID : 20
Format : UTF-8
Codec ID : S_TEXT/UTF8
Codec ID/Info : UTF-8 Plain Text
Duration : 53 min 58 s
Bit rate : 38 b/s
Count of elements : 534
Stream size : 15.1 KiB (0%)
Language : Japanese
Default : No
Forced : No

Text #19
ID : 21
Format : UTF-8
Codec ID : S_TEXT/UTF8
Codec ID/Info : UTF-8 Plain Text
Duration : 53 min 58 s
Bit rate : 47 b/s
Count of elements : 530
Stream size : 18.9 KiB (0%)
Language : Korean
Default : No
Forced : No

Text #20
ID : 22
Format : UTF-8
Codec ID : S_TEXT/UTF8
Codec ID/Info : UTF-8 Plain Text
Duration : 53 min 58 s
Bit rate : 39 b/s
Count of elements : 516
Stream size : 15.7 KiB (0%)
Language : Malay
Default : No
Forced : No

Text #21
ID : 23
Format : UTF-8
Codec ID : S_TEXT/UTF8
Codec ID/Info : UTF-8 Plain Text
Duration : 53 min 58 s
Bit rate : 41 b/s
Count of elements : 530
Stream size : 16.5 KiB (0%)
Language : Norwegian Bokmal
Default : No
Forced : No

Text #22
ID : 24
Format : UTF-8
Codec ID : S_TEXT/UTF8
Codec ID/Info : UTF-8 Plain Text
Duration : 53 min 58 s
Bit rate : 41 b/s
Count of elements : 515
Stream size : 16.6 KiB (0%)
Language : Dutch
Default : No
Forced : No

Text #23
ID : 25
Format : UTF-8
Codec ID : S_TEXT/UTF8
Codec ID/Info : UTF-8 Plain Text
Duration : 53 min 58 s
Bit rate : 39 b/s
Count of elements : 511
Stream size : 15.6 KiB (0%)
Language : Polish
Default : No
Forced : No

Text #24
ID : 26
Format : UTF-8
Codec ID : S_TEXT/UTF8
Codec ID/Info : UTF-8 Plain Text
Duration : 53 min 58 s
Bit rate : 42 b/s
Count of elements : 516
Stream size : 16.9 KiB (0%)
Title : Brazilian
Language : Portuguese
Default : No
Forced : No

Text #25
ID : 27
Format : UTF-8
Codec ID : S_TEXT/UTF8
Codec ID/Info : UTF-8 Plain Text
Duration : 53 min 58 s
Bit rate : 42 b/s
Count of elements : 529
Stream size : 17.0 KiB (0%)
Language : Portuguese
Default : No
Forced : No

Text #26
ID : 28
Format : UTF-8
Codec ID : S_TEXT/UTF8
Codec ID/Info : UTF-8 Plain Text
Duration : 53 min 58 s
Bit rate : 44 b/s
Count of elements : 516
Stream size : 17.6 KiB (0%)
Language : Romanian
Default : No
Forced : No

Text #27
ID : 29
Format : UTF-8
Codec ID : S_TEXT/UTF8
Codec ID/Info : UTF-8 Plain Text
Duration : 53 min 58 s
Bit rate : 74 b/s
Count of elements : 530
Stream size : 29.3 KiB (0%)
Language : Russian
Default : No
Forced : No

Text #28
ID : 30
Format : UTF-8
Codec ID : S_TEXT/UTF8
Codec ID/Info : UTF-8 Plain Text
Duration : 53 min 58 s
Bit rate : 40 b/s
Count of elements : 511
Stream size : 16.1 KiB (0%)
Language : Swedish
Default : No
Forced : No

Text #29
ID : 31
Format : UTF-8
Codec ID : S_TEXT/UTF8
Codec ID/Info : UTF-8 Plain Text
Duration : 53 min 58 s
Bit rate : 114 b/s
Count of elements : 530
Stream size : 45.2 KiB (0%)
Language : Tamil
Default : No
Forced : No

Text #30
ID : 32
Format : UTF-8
Codec ID : S_TEXT/UTF8
Codec ID/Info : UTF-8 Plain Text
Duration : 53 min 58 s
Bit rate : 112 b/s
Count of elements : 530
Stream size : 44.6 KiB (0%)
Language : Telugu
Default : No
Forced : No

Text #31
ID : 33
Format : UTF-8
Codec ID : S_TEXT/UTF8
Codec ID/Info : UTF-8 Plain Text
Duration : 53 min 58 s
Bit rate : 106 b/s
Count of elements : 530
Stream size : 41.9 KiB (0%)
Language : Thai
Default : No
Forced : No

Text #32
ID : 34
Format : UTF-8
Codec ID : S_TEXT/UTF8
Codec ID/Info : UTF-8 Plain Text
Duration : 53 min 58 s
Bit rate : 41 b/s
Count of elements : 515
Stream size : 16.5 KiB (0%)
Language : Turkish
Default : No
Forced : No

Text #33
ID : 35
Format : UTF-8
Codec ID : S_TEXT/UTF8
Codec ID/Info : UTF-8 Plain Text
Duration : 53 min 58 s
Bit rate : 42 b/s
Count of elements : 530
Stream size : 16.8 KiB (0%)
Title : 中文(简体)
Language : 中文
Default : No
Forced : No

Text #34
ID : 36
Format : UTF-8
Codec ID : S_TEXT/UTF8
Codec ID/Info : UTF-8 Plain Text
Duration : 53 min 58 s
Bit rate : 41 b/s
Count of elements : 534
Stream size : 16.3 KiB (0%)
Title : 中文(繁体)
Language : 中文
Default : No
Forced : No


Menu
00:00:00.000 : en:Amazon Original
00:00:05.000 : en:Scene 2
00:02:39.000 : en:Title Sequence
00:02:49.000 : en:Scene 4
00:04:38.000 : en:Scene 5
00:07:54.000 : en:Scene 6
00:09:45.000 : en:Scene 7
00:13:38.000 : en:Scene 8
00:16:30.000 : en:Scene 9
00:17:53.000 : en:Scene 10
00:21:21.000 : en:Scene 11
00:23:31.000 : en:Scene 12
00:28:17.000 : en:Scene 13
00:30:43.000 : en:Scene 14
00:32:21.000 : en:Scene 15
00:42:43.000 : en:Scene 16
00:44:55.000 : en:Scene 17
00:45:51.000 : en:Scene 18
00:47:01.000 : en:Scene 19
00:50:41.000 : en:Scene 20
00:52:53.000 : en:End Credits

下载地址:

游客,如果您要查看本帖隐藏内容请回复





上一篇:手枪 / Pistol (2022) / 第一季6集全/ 4K高清版本下载
下一篇:爱卡莉 / iCarly (2021) / 第一季全13集 / 4K高清版本下载
回复

使用道具 举报

1

主题

1428

帖子

4138

积分

4K家园VIP

Rank: 9Rank: 9Rank: 9

积分
4138
发表于 2022-6-2 11:20:55 | 显示全部楼层
支持,赞一个
回复 支持 反对

使用道具 举报

4

主题

1354

帖子

4082

积分

4K家园VIP

Rank: 9Rank: 9Rank: 9

积分
4082
发表于 2022-6-2 14:14:41 | 显示全部楼层
有空一起交流一下
回复 支持 反对

使用道具 举报

0

主题

1396

帖子

4216

积分

4K家园VIP

Rank: 9Rank: 9Rank: 9

积分
4216
发表于 2022-6-2 15:16:45 | 显示全部楼层
好,很好,非常好!
回复 支持 反对

使用道具 举报

1

主题

1472

帖子

4272

积分

4K家园VIP

Rank: 9Rank: 9Rank: 9

积分
4272
发表于 2022-6-2 16:45:41 来自手机 | 显示全部楼层
看帖要回,回帖才健康,在踩踩,楼主辛苦了!
回复 支持 反对

使用道具 举报

主题

帖子

12

积分

新手上路

Rank: 1

积分
12
发表于 2022-6-2 19:09:06 | 显示全部楼层
支持楼主,支持4K家园,顶一个
回复 支持 反对

使用道具 举报

主题

帖子

49

积分

新手上路

Rank: 1

积分
49
发表于 2022-6-2 21:03:26 | 显示全部楼层
谢谢分享。。
回复

使用道具 举报

主题

帖子

9

积分

新手上路

Rank: 1

积分
9
发表于 2022-6-2 21:30:19 | 显示全部楼层
谢谢LZ分享!!!
回复 支持 反对

使用道具 举报

2

主题

1403

帖子

4077

积分

4K家园VIP

Rank: 9Rank: 9Rank: 9

积分
4077
发表于 2022-6-2 23:23:39 | 显示全部楼层
好像还可以
回复 支持 反对

使用道具 举报

2

主题

1420

帖子

4050

积分

4K家园VIP

Rank: 9Rank: 9Rank: 9

积分
4050
发表于 2022-11-10 14:43:37 | 显示全部楼层
围观 围观 沙发在哪里!!!
回复 支持 反对

使用道具 举报

您需要登录后才可以回帖 登录 | 立即注册

本版积分规则

精彩图文
Archiver|手机版|TAG|Sitemap|新帖|专题|联系我们:邮箱: 4kjia.com@gmail.com   

4k家园   ©2019