[4K电影] 凶火 / Firestarter (2022) 4K高清版本下载

[复制链接]

1868

主题

2007

帖子

1万

积分

超级版主

Rank: 8Rank: 8

积分
15027
 楼主| 发表于 2022-6-3 10:27:43 | 显示全部楼层 |阅读模式
QQ图片20220603101052_副本.png

◎译  名 凶火 / 燃火的女孩(台)
◎片  名 Firestarter
◎年  代 2022
◎产  地 美国
◎类  别 科幻 / 惊悚 / 恐怖
◎语  言 英语
◎上映日期 2022-05-13(美国/美国网络)
◎IMDb评分  4.6/10 from 8998 users
◎IMDb链接  https://www.imdb.com/title/tt1798632/
◎豆瓣评分 4.8/ from 1081 users
◎豆瓣链接 https://movie.douban.com/subject/25835398/
◎片  长 94分钟
◎导  演 基斯·托马斯 Keith Thomas
◎编  剧 斯蒂芬·金 Stephen King (id:1049547 /  斯科特·泰姆斯 Scott Teems
◎演  员 赖恩·基拉·阿姆斯特朗 Ryan Kiera Armstrong
       扎克·埃夫隆 Zac Efron
       西德妮·莱蒙 Sydney Lemmon
       麦克尔·格雷耶斯 Michael Greyeyes
       格洛利亚·鲁本 Gloria Reuben
       Tina Jung Tina Jung
       兰内特·瓦雷 Lanette Ware
       加文·麦基弗·赖特 Gavin MacIver-Wright
       丹尼·沃 Danny Waugh



◎简  介


  一对通过实验获得超能力的夫妻生下一个能遭纵火焰的女儿,Charlie(赖恩·基拉·阿姆斯特朗 饰演),从此便开始逃避联邦秘密特工的追查,他们想让Charlie的超能力为己所用。Charlie要逐渐学会控制自己的能力,也要依赖它保护自己与家庭……

Video
ID : 1
Format : HEVC
Format/Info : High Efficiency Video Coding
Format profile : Main 10@L5@High
Codec ID : V_MPEGH/ISO/HEVC
Duration : 1 h 34 min
Bit rate : 12.1 Mb/s
Width : 3 840 pixels
Height : 1 600 pixels
Display aspect ratio : 2.40:1
Frame rate mode : Constant
Frame rate : 23.976 FPS
Color space : YUV
Chroma subsampling : 4:2:0
Bit depth : 10 bits
Bits/(Pixel*Frame) : 0.082
Stream size : 7.94 GiB (97%)
Default : Yes
Forced : No
Color range : Limited
Color primaries : BT.709
Transfer characteristics : BT.709
Matrix coefficients : BT.709

Audio
ID : 2
Format : AC-3
Format/Info : Audio Coding 3
Commercial name : Dolby Digital
Codec ID : A_AC3
Duration : 1 h 34 min
Bit rate mode : Constant
Bit rate : 384 kb/s
Channel(s) : 6 channels
Channel layout : L R C LFE Ls Rs
Sampling rate : 48.0 kHz
Frame rate : 31.250 FPS (1536 SPF)
Compression mode : Lossy
Stream size : 259 MiB (3%)
Language : English
Service kind : Complete Main
Default : Yes
Forced : No

Text
ID : 3
Format : UTF-8
Codec ID : S_TEXT/UTF8
Codec ID/Info : UTF-8 Plain Text
Duration : 1 h 34 min
Bit rate : 41 b/s
Count of elements : 1179
Stream size : 28.9 KiB (0%)
Language : English
Default : Yes
Forced : No


资源速度为零或资源敏感被和谐时,推荐使用qBittorrent等下载软件,有条件的推荐115更好的下载软件!

下载地址:


游客,如果您要查看本帖隐藏内容请回复

游客,如果您要查看本帖隐藏内容请回复






上一篇:地心抢险记 (简繁中字) / The Core (2003) 4K高清版本下载
下一篇:追踪 / Chase (2022) 4K高清版本下载
回复

使用道具 举报

0

主题

1392

帖子

4038

积分

4K家园VIP

Rank: 9Rank: 9Rank: 9

积分
4038
发表于 2022-6-3 10:27:47 | 显示全部楼层
高手啊
回复 支持 反对

使用道具 举报

57

主题

1545

帖子

4485

积分

4K家园VIP

Rank: 9Rank: 9Rank: 9

积分
4485
发表于 2022-6-3 10:40:00 | 显示全部楼层
4K家园资源不错,前排支持
回复 支持 反对

使用道具 举报

0

主题

92

帖子

609

积分

4K家园VIP

Rank: 9Rank: 9Rank: 9

积分
609
发表于 2022-6-3 10:53:37 | 显示全部楼层
楼主辛苦了,谢谢楼主,感谢楼主分享,楼主好人一生平安!!!
回复 支持 反对

使用道具 举报

0

主题

380

帖子

2325

积分

注册会员

Rank: 2

积分
2325
发表于 2022-6-3 11:43:35 | 显示全部楼层
感谢楼主分享
回复 支持 反对

使用道具 举报

0

主题

1330

帖子

4002

积分

4K家园VIP

Rank: 9Rank: 9Rank: 9

积分
4002
发表于 2022-6-3 12:57:02 | 显示全部楼层
看起来好像不错的样子
回复 支持 反对

使用道具 举报

1

主题

1335

帖子

3827

积分

4K家园VIP

Rank: 9Rank: 9Rank: 9

积分
3827
发表于 2022-6-3 14:05:37 来自手机 | 显示全部楼层
前排顶起
回复 支持 反对

使用道具 举报

0

主题

15

帖子

65

积分

新手上路

Rank: 1

积分
65
发表于 2022-6-3 16:56:35 | 显示全部楼层
资源速度为零或资源敏感被和谐时,推荐使用qBittorrent等下载软件,有条件的推荐115更好的下载软件!
回复 支持 反对

使用道具 举报

0

主题

1340

帖子

4048

积分

4K家园VIP

Rank: 9Rank: 9Rank: 9

积分
4048
发表于 2022-6-3 21:05:11 来自手机 | 显示全部楼层
支持一下楼主,顶起来
回复 支持 反对

使用道具 举报

0

主题

13

帖子

102

积分

4K家园VIP

Rank: 9Rank: 9Rank: 9

积分
102
发表于 2022-6-4 07:44:25 | 显示全部楼层
感谢楼主分享
回复 支持 反对

使用道具 举报

您需要登录后才可以回帖 登录 | 立即注册

本版积分规则

精彩图文
Archiver|手机版|TAG|Sitemap|新帖|专题|联系我们:邮箱: 4kjia.com@gmail.com   

4k家园   ©2019