[4K UHD 蓝光原盘] 千禧年三部曲(俄版)Millennium (2010)4K蓝光REMUX 版本下载

  [复制链接]

1764

主题

1843

帖子

1万

积分

超级版主

Rank: 8Rank: 8

积分
19327
 楼主| 发表于 2022-6-3 12:28:11 | 显示全部楼层 |阅读模式
本帖最后由 没完没了 于 2022-6-9 11:32 编辑

QQ图片20220603115929_副本.png

◎译  名 龙纹身的女孩/文身女黑客/憎恨女人的男人/千禧年系列第一部
◎片  名 Män som hatar kvinnor
◎年  代 2009
◎产  地 瑞典/丹麦/德国/比利时
◎类  别 犯罪/剧情/悬疑/惊悚
◎语  言 瑞典语/英语
◎字  幕 简体中字
◎上映日期 2009-02-27(瑞典)/2009-02-27(丹麦)/2009-10-01(德国)
◎IMDb评分  7.8/10 from 184,940 users
◎IMDb链接  http://www.imdb.com/title/tt1132620/
◎豆瓣评分 7.5/10 from 39389 users
◎豆瓣链接 https://movie.douban.com/subject/3217894/
◎片  长 1h 33m 00s
◎导  演 涅尔斯·阿登·欧普勒夫 Niels Arden Oplev
◎主  演 努米·拉佩斯 Noomi Rapace
       迈克尔·恩奎斯特 Michael Nyqvist
       彼得·哈贝尔 Peter Haber
       大卫·丹席克 David Dencik

◎简  介

  本片根据瑞典推理小说名家斯蒂格•拉赫松《千禧年》三部曲的第一部《恨女人的男人》改编。《千禧年》杂志的记者麦克•布隆韦斯特(迈克尔•恩奎斯特Michael Nyqvist 饰)应瑞典范耶尔财团巨头亨利(斯文-博蒂尔•陶博 Sven-Bertil Taube 饰)的请求,调查四十年前亨利挚爱的侄女海莉失踪案。在调查过程中,麦克接触了多位范耶尔财团人员,包括海莉的哥哥马丁(皮特•海伯 Peter Haber 饰)和表姐塞西莉亚(马莉卡•劳伦丝 Marika Lagercrantz 饰)。麦克发现保全公司调查员丽思贝丝•莎兰德(劳米•拉佩斯 Noomi Rapace 饰)入侵了自己的电脑,并提供了重要的破案线索。麦克决定与周身刺青鼻耳穿环的丽思贝丝联手调查。随着一步步接近真相,麦克发现自己的人身安全受到了威胁。但凶手是否与海莉失踪案相关呢?
  本片获丹麦阿曼达奖最佳外国电影提名。

◎获奖情况

  第9届华盛顿影评人协会奖  (2010)
  最佳外语片(提名)

  第15届圣地亚哥影评人协会奖  (2010)
  最佳外语片(提名)

  第23届芝加哥影评人协会奖  (2010)
  最佳外语片(提名)


QQ图片20220603111902_副本.png

◎译  名 玩火的女孩
◎片  名 Flickan som lekte med elden
◎年  代 2009
◎产  地 瑞典/丹麦/德国/比利时
◎类  别 犯罪/悬疑/惊悚
◎语  言 瑞典语/英语/俄语
◎字  幕 简体中字
◎上映日期 2009-09-18(瑞典)/2009-09-18(丹麦)/2010-01-21(德国)
◎IMDb评分  7.2/10 from 78,707 users
◎IMDb链接  http://www.imdb.com/title/tt1216487/
◎豆瓣评分 6.8/10 from 6346 users
◎豆瓣链接 https://movie.douban.com/subject/3218765/
◎片  长 1h 33m 15s
◎导  演 丹尼尔·阿尔弗雷森 Daniel Alfredson
◎主  演 迈克尔·恩奎斯特 Michael Nyqvist
       劳米·拉佩斯 Noomi Rapace
       格奥尔基·斯泰科夫 Georgi Staykov
       拉尔夫·卡尔松 Ralph Carlsson
       塔尼娅·洛伦松 Tanja Lorentzon

◎简  介

  米克·布卢姆科斯特(Michael Nyqvist 饰)是千禧年报社的一名记者,他正就东欧雏妓贩卖的问题展开调查。然而随着调查的深入,他的助手道格及其女友被人残忍杀害。根据现场遗留下的指纹,所有的指控都指向了丽莎贝丝·萨兰德(劳米·拉佩斯 Noomi Rapace 饰)。不久,萨兰德的最新监护人尼尔斯·彼尤曼律师(Peter Andersson 饰)亦在寓所被人杀害。经过一段时间的环球旅行,萨兰德刚刚回到瑞典,等待她的却是一系列莫名的指控和追捕。究竟是谁策划了这一系列的谋杀?又为什么将罪名都转嫁到萨兰德的身上?所有的一切背后又隐藏着怎样的阴谋?
  本片根据瑞典小说家斯蒂格·拉尔松(Stieg Larsson)的原著改编。


QQ图片20220603111701_副本.png

◎译  名 捅马蜂窝的女孩/直捣蜂窝的女孩(港)
◎片  名 Luftslottet som sprängdes
◎年  代 2009
◎产  地 瑞典/丹麦/德国
◎类  别 犯罪/剧情/惊悚
◎语  言 瑞典语
◎字  幕 简体中字
◎上映日期 2009-11-27(瑞典)
◎IMDb评分  7.3/10 from 57,128 users
◎IMDb链接  http://www.imdb.com/title/tt1343097/
◎豆瓣评分 7.1/10 from 4690 users
◎豆瓣链接 https://movie.douban.com/subject/3750748/
◎片  长 1h 32m 20s
◎导  演 丹尼尔·阿尔弗雷森 Daniel Alfredson
◎主  演 迈克尔·恩奎斯特 Michael Nyqvist
          劳米·拉佩斯 Noomi Rapace
       Michalis Koutsogiannakis
       安德斯·安波姆 Anders Ahlbom

◎简  介

  上一集惨绝人寰的父子三人残杀,让丽莎贝丝·萨兰德(劳米·拉佩斯 Noomi Rapace 饰)头部中弹,几乎丧命,亚历山大·扎拉千科(Georgi Staykov 饰)惨遭斧劈,身负重伤。父女二人一同住在哥德堡的萨尔格医院,隆德曼·尼埃德曼(Micke Spreitz 饰)则持续逃亡。由于亚历山大是30年前从苏联军情局投诚瑞典的情报人员,其敏感身份让政府颇多顾忌,而丽莎贝丝背后隐藏的政治黑幕又令政客们焦虑不安。不久,亚历山大被瑞典安全局派出的刺客杀害,丽莎贝丝则面临多项谋杀罪名的指控。为了拯救丽莎贝丝,并揭露政府黑幕,千禧年杂志记者米克·布卢姆科斯特(Michael Nyqvist 饰)奔忙取证。然调查越深,危险越大……
  本片根据瑞典小说家斯蒂格·拉尔松(Stieg Larsson)的原著改编,是“千禧年三部曲”的最后一部。

Video
ID : 1
Format : HEVC
Format/Info : High Efficiency Video Coding
Format profile : Main@L5.2@Main
Codec ID : V_MPEGH/ISO/HEVC
Duration : 1 h 33 min
Bit rate : 62.5 Mb/s
Width : 3 840 pixels
Height : 2 160 pixels
Display aspect ratio : 16:9
Frame rate mode : Constant
Frame rate : 23.976 (24000/1001) FPS
Color space : YUV
Chroma subsampling : 4:2:0
Bit depth : 8 bits
Bits/(Pixel*Frame) : 0.314
Stream size : 40.6 GiB (89%)
Language : English
Default : Yes
Forced : No

Audio #1
ID : 2
Format : AC-3
Format/Info : Audio Coding 3
Commercial name : Dolby Digital
Codec ID : A_AC3
Duration : 1 h 33 min
Bit rate mode : Constant
Bit rate : 192 kb/s
Channel(s) : 2 channels
Channel layout : L R
Sampling rate : 48.0 kHz
Frame rate : 31.250 FPS (1536 SPF)
Compression mode : Lossy
Stream size : 128 MiB (0%)
Title : Русский Репортаж, 100ТВ
Language : Russian
Service kind : Complete Main
Default : Yes
Forced : Yes

Audio #2
ID : 3
Format : AC-3
Format/Info : Audio Coding 3
Commercial name : Dolby Digital
Codec ID : A_AC3
Duration : 1 h 33 min
Bit rate mode : Constant
Bit rate : 384 kb/s
Channel(s) : 6 channels
Channel layout : L R C LFE Ls Rs
Sampling rate : 48.0 kHz
Frame rate : 31.250 FPS (1536 SPF)
Compression mode : Lossy
Stream size : 255 MiB (0%)
Title : ViruseProject
Language : Russian
Service kind : Complete Main
Default : No
Forced : No

Audio #3
ID : 4
Format : DTS XLL
Format/Info : Digital Theater Systems
Commercial name : DTS-HD Master Audio
Codec ID : A_DTS
Duration : 1 h 33 min
Bit rate mode : Variable
Bit rate : 3 470 kb/s
Channel(s) : 6 channels
Channel layout : C L R Ls Rs LFE
Sampling rate : 48.0 kHz
Frame rate : 93.750 FPS (512 SPF)
Bit depth : 24 bits
Compression mode : Lossless
Stream size : 2.25 GiB (5%)
Title : Юрий Немахов
Language : Russian
Default : No
Forced : No

Audio #4
ID : 5
Format : DTS XLL
Format/Info : Digital Theater Systems
Commercial name : DTS-HD Master Audio
Codec ID : A_DTS
Duration : 1 h 33 min
Bit rate mode : Variable
Bit rate : 3 438 kb/s
Channel(s) : 6 channels
Channel layout : C L R Ls Rs LFE
Sampling rate : 48.0 kHz
Frame rate : 93.750 FPS (512 SPF)
Bit depth : 24 bits
Compression mode : Lossless
Stream size : 2.23 GiB (5%)
Language : Swedish
Default : No
Forced : No

Text #1
ID : 6
Format : PGS
Muxing mode : zlib
Codec ID : S_HDMV/PGS
Codec ID/Info : Picture based subtitle format used on BDs/HD-DVDs
Duration : 1 h 32 min
Bit rate : 44.4 kb/s
Count of elements : 1524
Stream size : 29.2 MiB (0%)
Language : Russian
Default : No
Forced : No

Text #2
ID : 7
Format : PGS
Muxing mode : zlib
Codec ID : S_HDMV/PGS
Codec ID/Info : Picture based subtitle format used on BDs/HD-DVDs
Duration : 1 h 30 min
Bit rate : 22.5 kb/s
Count of elements : 1416
Stream size : 14.6 MiB (0%)
Language : English
Default : No
Forced : No

Text #3
ID : 8
Format : PGS
Muxing mode : zlib
Codec ID : S_HDMV/PGS
Codec ID/Info : Picture based subtitle format used on BDs/HD-DVDs
Duration : 1 h 23 min
Bit rate : 384 b/s
Count of elements : 28
Stream size : 235 KiB (0%)
Language : English
Default : No
Forced : No

Menu
00:00:00.000 : :Глава 01
00:03:00.000 : :Глава 02
00:06:00.000 : :Глава 03
00:09:00.000 : :Глава 04
00:12:00.000 : :Глава 05
00:15:00.000 : :Глава 06
00:18:00.000 : :Глава 07
00:21:00.000 : :Глава 08
00:24:00.000 : :Глава 09
00:27:00.000 : :Глава 10
00:30:00.000 : :Глава 11
00:33:00.000 : :Глава 12
00:36:00.000 : :Глава 13
00:39:00.000 : :Глава 14
00:42:00.000 : :Глава 15
00:45:00.000 : :Глава 16
00:48:00.000 : :Глава 17
00:51:00.000 : :Глава 18
00:54:00.000 : :Глава 19
00:57:00.000 : :Глава 20
01:00:00.000 : :Глава 21
01:03:00.000 : :Глава 22
01:06:00.000 : :Глава 23
01:09:00.000 : :Глава 24
01:12:00.000 : :Глава 25
01:15:00.000 : :Глава 26
01:18:00.000 : :Глава 27
01:21:00.000 : :Глава 28
01:24:00.000 : :Глава 29
01:27:00.000 : :Глава 30
01:30:00.000 : :Глава 31
01:33:00.000 : :Глава 32

首发4K蓝光REMUX (俄版) 资源,无视迅雷下载软件,推荐使用qBittorrent等下载软件,有条件的会员或推荐115下载软件!

千禧年三部曲(271.74GB)Millennium Сезон 1 Серии 1-6 (Нильс Арден Оплев Niels Arden Oplev, Даниэль Альфредсон Daniel Alfredson)
游客,如果您要查看本帖隐藏内容请回复

关于下载后字幕问题:喜欢收藏的网友,因无中文字幕而困惑,4Kjia论坛为满足网友需要,可以为大家免费封装字幕,所需电影字幕均有需要人提供,大家也可以一起相互学习探讨,谢谢!



4K.gif

上一篇:双重赔偿 / Double Indemnity (1944) 4K蓝光[原盘+REMUX]版本下载
下一篇:纽约大逃亡 / Escape from New York (1981)4K蓝光[原盘+REMUX]版本下载
回复

使用道具 举报

3

主题

1716

帖子

4742

积分

4K家园VIP

Rank: 9Rank: 9Rank: 9

积分
4742
发表于 2022-6-3 12:28:16 | 显示全部楼层
我只是看看啊,不说话
回复 支持 反对

使用道具 举报

0

主题

7

帖子

42

积分

新手上路

Rank: 1

积分
42
发表于 2022-6-3 13:31:43 | 显示全部楼层
谢谢分享资源
回复 支持 反对

使用道具 举报

0

主题

3

帖子

297

积分

新手上路

Rank: 1

积分
297
发表于 2022-6-3 16:39:24 | 显示全部楼层
这个俄版的第一次见
回复 支持 反对

使用道具 举报

0

主题

1388

帖子

3998

积分

中级会员

Rank: 4

积分
3998
发表于 2022-6-4 07:37:15 | 显示全部楼层
4K家园资源不错,前排支持
回复 支持 反对

使用道具 举报

0

主题

37

帖子

7394

积分

金牌会员

Rank: 6Rank: 6

积分
7394
发表于 2022-6-4 10:16:01 | 显示全部楼层
谢谢分享资源
回复 支持 反对

使用道具 举报

1

主题

1364

帖子

4120

积分

4K家园VIP

Rank: 9Rank: 9Rank: 9

积分
4120
发表于 2022-6-4 22:42:17 | 显示全部楼层
我只是看看啊,不说话
回复 支持 反对

使用道具 举报

1

主题

1611

帖子

4441

积分

4K家园VIP

Rank: 9Rank: 9Rank: 9

积分
4441
发表于 2022-6-5 09:03:06 | 显示全部楼层
支持一下楼主,顶起来
回复 支持 反对

使用道具 举报

0

主题

3

帖子

12

积分

新手上路

Rank: 1

积分
12
发表于 2022-6-5 09:37:36 | 显示全部楼层
谢谢分享
回复

使用道具 举报

61

主题

1490

帖子

4294

积分

4K家园VIP

Rank: 9Rank: 9Rank: 9

积分
4294
发表于 2022-6-6 08:33:12 | 显示全部楼层
楼猪辛苦了,支持一下分享好资源
回复 支持 反对

使用道具 举报

您需要登录后才可以回帖 登录 | 立即注册

本版积分规则

精彩图文
Archiver|手机版|TAG|Sitemap|新帖|专题|联系我们:邮箱: 4kjia.com@gmail.com   

4k家园   ©2019